2024 韩国 剧情 WEB-1080P 即兴爵士[全8集][简繁英字幕].Jazz.for.Two.S01.1080p.GagaOOLala.WEB-DL.AAC2.0.H.264-BlackTV 8.28GB

MAY20919R 2024-05-26 00:15 1978


完整标题:即兴爵士[全8集][简繁英字幕].Jazz.for.Two.S01.1080p.GagaOOLala.WEB-DL.AAC2.0.H.264-BlackTV 8.28GB




◎标  题 即兴爵士
◎译  名 Jazz For Two
◎片  名 재즈처럼
◎年  代 2024
◎产  地 韩国
◎类  别 剧情 / 同性 / 音乐
◎语  言 韩语
◎IMDb链接 https://www.imdb.com/title//
◎豆瓣链接 https://movie.douban.com/subject/36455208/
◎导  演 宋秀林 Su-lim Song
◎演  员 池镐根 Ho-geun Ji
      金真权 Jin Kwon Kim
      宋韓謙 Song Han-gyeom
      金正河 Jeong-ha Kim
      边胜泰 Byun Sung Tae
      孔在贤 Jae Hyun Kong

◎简  介
    讨厌爵士的泰伊(池镐根 饰)和想自由演奏爵士的世宪(金真权 饰),因为学校课程被分到一组进行爵士合奏。就像在没有规定规则的情况下即兴演奏的爵士一样,他们想要摆脱怎样的过去?充满紧张感的爵士合奏即将拉开帷幕。

##### MediaInfo ######
General
Unique ID : 76760924270960709302005185869137990694 (0x39BF9DC34BBDD94C32A42CBDB8EA5426)
Complete name : Jazz.for.Two.S01E01.1080p.GagaOOLala.WEB-DL.AAC2.0.H.264-BlackTV.mkv
Duration : 30 min 39 s
Overall bit rate : 4 425 kb/s

Video
ID : 1
Format : AVC
Format/Info : Advanced Video Codec
Format profile : High@L4
Format settings : CABAC / 5 Ref Frames
Format settings, CABAC : Yes
Format settings, Reference frames : 5 frames
Codec ID : V_MPEG4/ISO/AVC
Duration : 30 min 39 s
Bit rate : 4 296 kb/s
Width : 1 920 pixels
Height : 1 080 pixels
Display aspect ratio : 16:9
Frame rate mode : Constant
Frame rate : 23.976 (24000/1001) FPS
Color space : YUV
Chroma subsampling : 4:2:0
Bit depth : 8 bits
Scan type : Progressive
Bits/(Pixel*Frame) : 0.086
Stream size : 942 MiB (97%)
Language : Korean
Default : Yes
Forced : No

Audio
ID : 2
Format : AAC LC
Format/Info : Advanced Audio Codec Low Complexity
Codec ID : A_AAC-2
Duration : 30 min 39 s
Bit rate : 125 kb/s
Channel(s) : 2 channels
Channel layout : L R
Sampling rate : 48.0 kHz
Frame rate : 46.875 FPS (1024 SPF)
Compression mode : Lossy
Stream size : 27.5 MiB (3%)
Language : English
Default : Yes
Forced : No

Text #1
ID : 3
Format : UTF-8
Codec ID : S_TEXT/UTF8
Codec ID/Info : UTF-8 Plain Text
Duration : 30 min 24 s
Bit rate : 32 b/s
Frame rate : 0.174 FPS
Count of elements : 317
Stream size : 7.17 KiB (0%)
Title : Simplified
Language : Chinese
Default : No
Forced : No

Text #2
ID : 4
Format : UTF-8
Codec ID : S_TEXT/UTF8
Codec ID/Info : UTF-8 Plain Text
Duration : 30 min 24 s
Bit rate : 32 b/s
Frame rate : 0.174 FPS
Count of elements : 317
Stream size : 7.17 KiB (0%)
Title : Traditional
Language : Chinese
Default : No
Forced : No

Text #3
ID : 5
Format : UTF-8
Codec ID : S_TEXT/UTF8
Codec ID/Info : UTF-8 Plain Text
Duration : 30 min 30 s
Bit rate : 33 b/s
Frame rate : 0.166 FPS
Count of elements : 303
Stream size : 7.59 KiB (0%)
Language : English
Default : No
Forced : No

Text #4
ID : 6
Format : UTF-8
Codec ID : S_TEXT/UTF8
Codec ID/Info : UTF-8 Plain Text
Duration : 30 min 30 s
Bit rate : 38 b/s
Frame rate : 0.167 FPS
Count of elements : 305
Stream size : 8.58 KiB (0%)
Language : Spanish
Default : No
Forced : No

Text #5
ID : 7
Format : UTF-8
Codec ID : S_TEXT/UTF8
Codec ID/Info : UTF-8 Plain Text
Duration : 30 min 30 s
Bit rate : 38 b/s
Frame rate : 0.166 FPS
Count of elements : 303
Stream size : 8.49 KiB (0%)
Language : Indonesian
Default : No
Forced : No

Text #6
ID : 8
Format : UTF-8
Codec ID : S_TEXT/UTF8
Codec ID/Info : UTF-8 Plain Text
Duration : 30 min 30 s
Bit rate : 85 b/s
Frame rate : 0.166 FPS
Count of elements : 303
Stream size : 19.1 KiB (0%)
Language : Thai
Default : No
Forced : No


点击图片可查看大图

软字幕无法在截图上展现,HDR版本/杜比视界版本截图会出现颜色异常,请使用支持的设备播放!

部分资源为软字幕,移动端推荐播放器:MxPlayer,nPlayer,infuse ,其他播放器请自行尝试。

部分资源为软字幕,电脑端推荐播放器:PotPlayer,完美解码,KMPLAYER,其他播放器请自行尝试。

下载端推荐纯BT下载软件:qBittorrent,Bitcomet,uTorrent ,其他下载软件请自行尝试。不支持吸血迅雷。

上传的附件:
最新回复 (0)