2014 日本 剧情 WEB-1080P 花咲舞无法沉默[第07集][中文字幕].Hanasaki.Mai.ga.Damattenai.S01.2024.1080p.WEB-DL.H264.AAC-ZeroTV 2.46GB

RAY20920M 2024-05-26 10:02 2327


完整标题:花咲舞无法沉默[第07集][中文字幕].Hanasaki.Mai.ga.Damattenai.S01.2024.1080p.WEB-DL.H264.AAC-ZeroTV 2.46GB




◎标  题 花咲舞无法沉默
◎译  名 花咲舞不会沉默 / 花咲舞不再沉默 / Hanasaki Mai ga Damatte Inai / Hanasaki Mai Speaks Out
◎片  名 花咲舞が黙っていない
◎年  代 2014
◎产  地 日本
◎类  别 剧情
◎语  言 日语
◎IMDb评分 6.4/10 (31人评价)
◎IMDb链接 https://www.imdb.com/title/tt3487636/
◎豆瓣评分 7.0/10 (1419人评价)
◎豆瓣链接 https://movie.douban.com/subject/25817533/
◎导  演 南云圣一 Seiichi Nagumo
◎编  剧 江头美智留 Michiru Egashira
      池井户润 Jun Ikeido
◎演  员 杏 Anne
      上川隆也 Takaya Kamikawa
      塚地武雅 Muga Tsukaji
      榎木孝明 Takaaki Enoki
      甲本雅裕 Masahiro Kômoto
      大杉涟 Ren Ohsugi
      生濑胜久 Katsuhisa Namase
      木村佳乃 Yoshino Kimura
      神保悟志 Satoshi Jinbo
      中村靖日 Yasuhi Nakamura
      和泉崇司
      喜多阳子 Kita Youko
      矢崎由纱 Yusa Yazaki
      大岛智子 Oshima Satoko
      仲义代 Yoshiyo Naka
      田中幸太朗 Kotaro Tanaka
      山中崇 Takashi Yamanaka
      夕辉寿太 Jutta Yûki
      前田亚季 Aki Maeda
      船越英一郎 Eiichiro Funakoshi
      上间凛子 Mio Uema
      平冈祐太 Yûta Hiraoka
      松浦雅 Miyabi Matsuura
      户田惠子 Keiko Toda

◎简  介
    曾经是东京第一银行分行的上下级相马健(上川隆也 饰)和窗口业务员花咲舞(杏 饰)缘分不浅,二人在数月内先后调往银行本部,并分配在临店班供职。所谓临店班,是银行内部指针对出现了问题和纠纷的分店进行现场指导的部门,但是该部门由于其监督职能往往遭到分店负责人的抵制和排斥。相马和花咲按照管理分店的部长辛岛伸二朗(夏木孝明 饰)和次长芝崎太一)(塚地武雅 饰)的指示先后前往接到受理诉求的各分店进行指导,执拗并且绝不服输的花咲成功地解决了那里的问题,并对相关责任人进行了揭发,可是临店班无所畏惧的行动无意间触动了下任总行长的热门人选常务真藤毅(生瀬胜久 饰)的神经。眼见党羽接二连三落马,真藤常务再也无法对临店班坐视不理……   本片根据池井户润的原作改编。

##### MediaInfo ######
General
Unique ID : 93671451012897177588090473364238283446 (0x4678771A3AFB3646047DD2AFC85EB2B6)
Complete name : Hanasaki.Mai.ga.Damattenai.S01E07.2024.1080p.WEB-DL.H264.AAC-ZeroTV.mkv
Duration : 44 min 47 s
Overall bit rate : 7 856 kb/s

Video
ID : 1
Format : AVC
Format/Info : Advanced Video Codec
Format profile : High@L4.1
Format settings : CABAC / 1 Ref Frames
Format settings, CABAC : Yes
Format settings, Reference frames : 1 frame
Format settings, GOP : M=1, N=60
Codec ID : V_MPEG4/ISO/AVC
Duration : 44 min 47 s
Bit rate mode : Constant
Bit rate : 8 000 kb/s
Width : 1 920 pixels
Height : 1 080 pixels
Display aspect ratio : 16:9
Frame rate mode : Constant
Frame rate : 29.970 (30000/1001) FPS
Color space : YUV
Chroma subsampling : 4:2:0
Bit depth : 8 bits
Scan type : Progressive
Bits/(Pixel*Frame) : 0.129
Stream size : 2.42 GiB (98%)
Language : English
Default : Yes
Forced : No

Audio
ID : 2
Format : AAC LC
Format/Info : Advanced Audio Codec Low Complexity
Codec ID : A_AAC-2
Duration : 44 min 47 s
Bit rate : 125 kb/s
Channel(s) : 2 channels
Channel layout : L R
Sampling rate : 48.0 kHz
Frame rate : 46.875 FPS (1024 SPF)
Compression mode : Lossy
Stream size : 40.2 MiB (2%)
Title : 日语
Language : Japanese
Default : Yes
Forced : No

Text #1
ID : 3
Format : UTF-8
Codec ID : S_TEXT/UTF8
Codec ID/Info : UTF-8 Plain Text
Duration : 44 min 47 s
Bit rate : 89 b/s
Frame rate : 0.337 FPS
Count of elements : 907
Stream size : 29.2 KiB (0%)
Title : 简体中文
Language : Chinese
Default : No
Forced : No

Text #2
ID : 4
Format : UTF-8
Codec ID : S_TEXT/UTF8
Codec ID/Info : UTF-8 Plain Text
Duration : 44 min 47 s
Bit rate : 89 b/s
Frame rate : 0.337 FPS
Count of elements : 907
Stream size : 29.2 KiB (0%)
Title : 繁体中文
Language : Chinese
Default : No
Forced : No


点击图片可查看大图

软字幕无法在截图上展现,HDR版本/杜比视界版本截图会出现颜色异常,请使用支持的设备播放!

部分资源为软字幕,移动端推荐播放器:MxPlayer,nPlayer,infuse ,其他播放器请自行尝试。

部分资源为软字幕,电脑端推荐播放器:PotPlayer,完美解码,KMPLAYER,其他播放器请自行尝试。

下载端推荐纯BT下载软件:qBittorrent,Bitcomet,uTorrent ,其他下载软件请自行尝试。不支持吸血迅雷。

上传的附件:
最新回复 (0)