2024 韩国 剧情 WEB-1080P 没有秘密[第07-08集][无字片源].Frankly.Speaking.S01.1080p.TVING.WEB-DL.AAC2.0.H.264-BlackTV 4.29GB

RAY20920M 2024-05-26 11:33 2430


完整标题:没有秘密[第07-08集][无字片源].Frankly.Speaking.S01.1080p.TVING.WEB-DL.AAC2.0.H.264-BlackTV 4.29GB




◎标  题 没有秘密
◎译  名 没有秘密(剧版) / Frankly Speaking / No Secrets
◎片  名 비밀은 없어
◎年  代 2024
◎产  地 韩国
◎类  别 剧情 / 喜剧 / 爱情 / 奇幻
◎语  言 韩语
◎IMDb评分 5/10 (14人评价)
◎IMDb链接 https://www.imdb.com/title/tt32138907/
◎豆瓣链接 https://movie.douban.com/subject/36099308/
◎导  演 张智妍
◎编  剧 崔京善
◎演  员 高庚杓 Kyung-pyo Go
      姜汉娜 Han-na Kang
      朱钟赫 Jong-Hyuk Joo

◎简  介
    一名受人尊敬的主播(高庚杓 饰)突然在播报时失去自我约束力,此举吸引了一名电视台编剧(姜汉娜 饰)的注意,并邀请他上自己的综艺节目。

##### MediaInfo ######
General
Unique ID : 334109000398316644146285301755971197807 (0xFB5B0D87F27F54411DE08ECE67FD5B6F)
Complete name : Frankly.Speaking.S01E07.1080p.TVING.WEB-DL.AAC2.0.H.264-BlackTV.mkv
Duration : 1 h 6 min
Overall bit rate mode : Variable
Overall bit rate : 4 900 kb/s

Video
ID : 1
Format : AVC
Format/Info : Advanced Video Codec
Format profile : High@L4
Format settings : CABAC / 2 Ref Frames
Format settings, CABAC : Yes
Format settings, Reference frames : 2 frames
Codec ID : V_MPEG4/ISO/AVC
Duration : 1 h 6 min
Bit rate mode : Variable
Bit rate : 4 769 kb/s
Maximum bit rate : 9 000 kb/s
Width : 1 920 pixels
Height : 1 080 pixels
Display aspect ratio : 16:9
Frame rate mode : Constant
Frame rate : 29.970 (30000/1001) FPS
Color space : YUV
Chroma subsampling : 4:2:0
Bit depth : 8 bits
Scan type : Progressive
Bits/(Pixel*Frame) : 0.077
Stream size : 2.20 GiB (97%)
Language : Korean
Default : Yes
Forced : No

Audio
ID : 2
Format : AAC LC
Format/Info : Advanced Audio Codec Low Complexity
Codec ID : A_AAC-2
Duration : 1 h 6 min
Bit rate : 128 kb/s
Channel(s) : 2 channels
Channel layout : L R
Sampling rate : 48.0 kHz
Frame rate : 46.875 FPS (1024 SPF)
Compression mode : Lossy
Stream size : 60.6 MiB (3%)
Default : Yes
Forced : No


点击图片可查看大图

软字幕无法在截图上展现,HDR版本/杜比视界版本截图会出现颜色异常,请使用支持的设备播放!

部分资源为软字幕,移动端推荐播放器:MxPlayer,nPlayer,infuse ,其他播放器请自行尝试。

部分资源为软字幕,电脑端推荐播放器:PotPlayer,完美解码,KMPLAYER,其他播放器请自行尝试。

下载端推荐纯BT下载软件:qBittorrent,Bitcomet,uTorrent ,其他下载软件请自行尝试。不支持吸血迅雷。

上传的附件:
最新回复 (0)