2022 剧情 其他 WEB-1080P 野探哈莉 第一季[全8集][无字片源].Harry.Wild.S01.1080p.AMZN.WEB-DL.DDP.2.0.H.264-BlackTV 16.26GB

Katt2092T 2024-05-26 12:36 1406


完整标题:野探哈莉 第一季[全8集][无字片源].Harry.Wild.S01.1080p.AMZN.WEB-DL.DDP.2.0.H.264-BlackTV 16.26GB




◎标  题 野探哈莉 第一季
◎译  名 哈里·怀尔德
◎片  名 Harry Wild Season 1
◎年  代 2022
◎产  地 爱尔兰
◎类  别 剧情 / 悬疑 / 惊悚
◎语  言 英语
◎IMDb评分 7.2/10 (3025人评价)
◎IMDb链接 https://www.imdb.com/title/tt14527610/
◎豆瓣评分 7.3/10 (196人评价)
◎豆瓣链接 https://movie.douban.com/subject/35461261/
◎编  剧 大卫·罗根 David Logan
◎演  员 简·西摩 Jane Seymour
      丹妮尔·瑞恩 Danielle Ryan
      凯文·J·瑞恩 Kevin J. Ryan
      斯图尔特·格雷厄姆 Stuart Graham
      艾米·胡伯曼 Amy Huberman
      保罗·泰来克 Paul Tylak
      亚当·弗格斯 Adam Fergus
      斯蒂芬·霍根 Stephen Hogan
      Gina Costigan Gina Costigan
      Lynette Callaghan Lynette Callaghan
      爱丽丝·麦卡锡 Alice McCarthy
      保罗·雷德 Paul Reid
      艾登·奥黑尔 Aidan O'Hare
      艾米·德·毕罕 Amy De Bhrún
      诺玛·谢汗 Norma Sheahan
      马特·瑞安 Matt Ryan
      Seán T. Ó Meallaigh Seán T. Ó Meallaigh
      格里·坎农 Gerry Cannon

◎简  介
    A recently retired English professor discovers a real knack for investigation and cannot help but interfere with the cases assigned to her police detective son.

##### MediaInfo ######
General
Unique ID : 73161451336357068956738625552039436015 (0x370A620BA7DC5D8FA2326755B4465EEF)
Complete name : Harry.Wild.S01E01.When.Harry.Met.Furgus.1080p.AMZN.WEB-DL.DDP.2.0.H.264-BlackTV.mkv
Duration : 49 min 16 s
Overall bit rate : 6 243 kb/s

Video
ID : 1
Format : AVC
Format/Info : Advanced Video Codec
Format profile : High@L4
Format settings : CABAC / 4 Ref Frames
Format settings, CABAC : Yes
Format settings, Reference frames : 4 frames
Codec ID : V_MPEG4/ISO/AVC
Duration : 49 min 16 s
Bit rate mode : Constant
Bit rate : 6 017 kb/s
Nominal bit rate : 10 000 kb/s
Width : 1 920 pixels
Height : 1 080 pixels
Display aspect ratio : 16:9
Frame rate mode : Constant
Frame rate : 25.000 FPS
Color space : YUV
Chroma subsampling : 4:2:0
Bit depth : 8 bits
Scan type : Progressive
Bits/(Pixel*Frame) : 0.116
Stream size : 2.07 GiB (96%)
Language : English
Default : Yes
Forced : No
Color range : Limited
Color primaries : BT.709
Transfer characteristics : BT.709
Matrix coefficients : BT.709

Audio
ID : 2
Format : E-AC-3
Format/Info : Enhanced AC-3
Commercial name : Dolby Digital Plus
Codec ID : A_EAC3
Duration : 49 min 16 s
Bit rate mode : Constant
Bit rate : 224 kb/s
Channel(s) : 2 channels
Channel layout : L R
Sampling rate : 48.0 kHz
Frame rate : 31.250 FPS (1536 SPF)
Compression mode : Lossy
Stream size : 78.9 MiB (4%)
Language : English
Service kind : Complete Main
Default : Yes
Forced : No

Text #1
ID : 3
Format : UTF-8
Codec ID : S_TEXT/UTF8
Codec ID/Info : UTF-8 Plain Text
Duration : 48 min 10 s
Bit rate : 74 b/s
Frame rate : 0.302 FPS
Count of elements : 872
Stream size : 26.3 KiB (0%)
Title : SDH
Language : English
Default : No
Forced : No

Text #2
ID : 4
Format : UTF-8
Codec ID : S_TEXT/UTF8
Codec ID/Info : UTF-8 Plain Text
Duration : 45 min 50 s
Bit rate : 66 b/s
Frame rate : 0.264 FPS
Count of elements : 726
Stream size : 22.4 KiB (0%)
Title : Mexico (SDH)
Language : Spanish
Default : No
Forced : No

Menu
00:00:00.000 : en:Studio Logo
00:00:07.000 : en:Introduction
00:01:10.000 : en:Title Sequence
00:01:31.000 : en:Scene 4
00:06:48.000 : en:Scene 5
00:09:21.000 : en:Scene 6
00:12:25.000 : en:Scene 7
00:16:31.000 : en:Scene 8
00:18:33.000 : en:Scene 9
00:23:13.000 : en:Scene 10
00:25:32.000 : en:Scene 11
00:26:57.000 : en:Scene 12
00:32:32.000 : en:Scene 13
00:37:07.000 : en:Scene 14
00:37:42.000 : en:Scene 15
00:38:06.000 : en:Scene 16
00:43:41.000 : en:Scene 17
00:48:12.000 : en:Scene 18
00:48:34.000 : en:Scene 19


点击图片可查看大图

软字幕无法在截图上展现,HDR版本/杜比视界版本截图会出现颜色异常,请使用支持的设备播放!

部分资源为软字幕,移动端推荐播放器:MxPlayer,nPlayer,infuse ,其他播放器请自行尝试。

部分资源为软字幕,电脑端推荐播放器:PotPlayer,完美解码,KMPLAYER,其他播放器请自行尝试。

下载端推荐纯BT下载软件:qBittorrent,Bitcomet,uTorrent ,其他下载软件请自行尝试。不支持吸血迅雷。

上传的附件:
最新回复 (0)