2022 美国 剧情 WEB-4K 人生切割术 第一季[全9集][简繁英字幕].Severance.S01.2022.2160p.ATVP.WEB-DL.x265.HDR.DDP5.1.Atmos-ZeroTV 75.62GB

RAY20920M 2024-05-26 20:50 2752


完整标题:人生切割术 第一季[全9集][简繁英字幕].Severance.S01.2022.2160p.ATVP.WEB-DL.x265.HDR.DDP5.1.Atmos-ZeroTV 75.62GB




◎标  题 人生切割术 第一季
◎译  名 遣散费 / 离职 / 生活割离术(港)
◎片  名 Severance Season 1
◎年  代 2022
◎产  地 美国
◎类  别 剧情 / 科幻 / 悬疑 / 惊悚
◎语  言 英语
◎IMDb评分 8.7/10 (184036人评价)
◎IMDb链接 https://www.imdb.com/title/tt11280740/
◎豆瓣评分 9.1/10 (116109人评价)
◎豆瓣链接 https://movie.douban.com/subject/34885342/
◎导  演 本·斯蒂勒 Ben Stiller
      伊费·麦卡德尔 Aoife McArdle
◎编  剧 丹·埃里克森 Dan Erickson
      安德鲁·科尔维尔 Andrew Colville
      卡莉·德雷克 Kari Drake
      安娜·欧阳·蒙赫 Anna Ouyang Moench
      阿曼达·奥弗顿 Amanda Overton
      海伦·丽 Helen Leigh
      克里斯·布莱克 Chris Black
◎演  员 亚当·斯科特 Adam Scott
      扎克·切利 Zach Cherry
      布丽特·洛薇尔 Britt Lower
      帕特丽夏·阿奎特 Patricia Arquette
      约翰·特托罗 John Turturro
      克里斯托弗·沃肯 Christopher Walken
      特拉梅尔·提尔曼 Tramell Tillman
      詹·塔洛克 Jen Tullock
      迈克尔·切鲁斯 Michael Chernus
      迈克尔·西伯里 Michael Siberry
      迪辰·拉克曼 Dichen Lachman
      茜妮·科尔亚历山大 Sydney Cole Alexander
      迈克尔·昆普斯蒂 Michael Cumpsty
      格蕾丝·雷克斯 Grace Rex
      诺拉·戴尔 Nora Dale
      小唐纳德·韦伯 Donald Webber Jr.
      奥利维亚·阿尔博赫 Olivia Alboher
      萨曼莎·法罗 Samantha Farrow
      莎拉·古德 Sarah Gold
      凯伦·奥尔德里奇 Karen Aldridge
      尤尔·瓦斯克斯 Yul Vazquez
      马克·盖勒 Marc Geller
      妮基·米歇尔·詹姆斯 Nikki Michelle James
      安妮·麦克纳马拉 Annie McNamara
      伊桑·弗劳尔 Ethan Flower
      桃乐丝·麦卡锡 Doris McCarthy
      卡西迪·莱顿 Cassidy Layton
      萨哈尔·比比扬 Sahar Bibiyan
      蕾切尔·爱丁顿 Rachel Addington
      克劳迪亚·罗宾森 Claudia Robinson
      马克·肯尼斯·斯马尔茨 Mark Kenneth Smaltz
      艾米·斯蒂勒 Amy Stiller

◎简  介
    故事发生在一家名为卢蒙的超级大公司内,一种名为记忆分割术的全新技术正在公司内部进行实验,接受了手术的员工将进行人格分离手术,形成公司人格和日常人格,当踏进公司大门的那一刻,他们的日常人格就会陷入沉睡,身体由公司人格主导。相对的,在离开公司的那一刻,日常人格会重新接管身体,当然,这个人格不会记得任何在公司里发生的事情。   马克(亚当·斯科特 Adam Scott 饰)、迪伦(扎克·切利 Zach Cherry 饰)和埃尔文(约翰·特托罗 John Turturro 饰)三人都接受了分离手术,这一天,他们所在的部门迎来了一位名叫海莉(布丽特·洛薇尔 Britt Lower 饰)的新同事,她身上的反叛气质打破了长久萦绕在这个部门,以及整个公司内的平静。

##### MediaInfo ######
General
Unique ID : 133292449942759775932544758469591862414 (0x6447312B8919CF625C79CE3BC1D88C8E)
Complete name : Severance.S01E01.2022.2160p.ATVP.WEB-DL.x265.HDR.DDP5.1.Atmos-ZeroTV.mkv
Duration : 57 min 14 s
Overall bit rate : 25.1 Mb/s

Video
ID : 1
Format : HEVC
Format/Info : High Efficiency Video Coding
Format profile : Main 10@L5@High
HDR format : SMPTE ST 2094 App 4, Version 1, HDR10+ Profile B compatible
Codec ID : V_MPEGH/ISO/HEVC
Duration : 57 min 14 s
Bit rate : 24.3 Mb/s
Width : 3 840 pixels
Height : 1 606 pixels
Display aspect ratio : 2.40:1
Frame rate mode : Constant
Frame rate : 23.976 FPS
Color space : YUV
Chroma subsampling : 4:2:0 (Type 2)
Bit depth : 10 bits
Bits/(Pixel*Frame) : 0.165
Stream size : 9.74 GiB (97%)
Default : Yes
Forced : No
Color range : Limited
Color primaries : BT.2020
Transfer characteristics : PQ
Matrix coefficients : BT.2020 non-constant
Mastering display color primaries : Display P3
Mastering display luminance : min: 0.0050 cd/m2, max: 1000 cd/m2
Maximum Content Light Level : 651 cd/m2
Maximum Frame-Average Light Level : 149 cd/m2

Audio
ID : 2
Format : E-AC-3 JOC
Format/Info : Enhanced AC-3 with Joint Object Coding
Commercial name : Dolby Digital Plus with Dolby Atmos
Codec ID : A_EAC3
Duration : 57 min 14 s
Bit rate mode : Constant
Bit rate : 768 kb/s
Channel(s) : 6 channels
Channel layout : L R C LFE Ls Rs
Sampling rate : 48.0 kHz
Frame rate : 31.250 FPS (1536 SPF)
Compression mode : Lossy
Stream size : 314 MiB (3%)
Language : English
Service kind : Complete Main
Default : Yes
Forced : No
Complexity index : 16
Number of dynamic objects : 15
Bed channel count : 1 channel
Bed channel configuration : LFE

Text #1
ID : 3
Format : UTF-8
Codec ID : S_TEXT/UTF8
Codec ID/Info : UTF-8 Plain Text
Duration : 56 min 56 s
Bit rate : 45 b/s
Frame rate : 0.177 FPS
Count of elements : 606
Stream size : 18.9 KiB (0%)
Title : Chinese Simplified
Language : Chinese
Default : Yes
Forced : No

Text #2
ID : 4
Format : UTF-8
Codec ID : S_TEXT/UTF8
Codec ID/Info : UTF-8 Plain Text
Duration : 56 min 56 s
Bit rate : 46 b/s
Frame rate : 0.178 FPS
Count of elements : 607
Stream size : 19.3 KiB (0%)
Title : Chinese Traditional
Language : Chinese
Default : Yes
Forced : No

Text #3
ID : 5
Format : UTF-8
Codec ID : S_TEXT/UTF8
Codec ID/Info : UTF-8 Plain Text
Duration : 56 min 56 s
Bit rate : 44 b/s
Frame rate : 0.178 FPS
Count of elements : 607
Stream size : 18.4 KiB (0%)
Title : Chinese Cantonese
Language : Chinese
Default : Yes
Forced : No

Text #4
ID : 6
Format : UTF-8
Codec ID : S_TEXT/UTF8
Codec ID/Info : UTF-8 Plain Text
Duration : 55 min 4 s
Bit rate : 48 b/s
Frame rate : 0.175 FPS
Count of elements : 578
Stream size : 19.6 KiB (0%)
Language : English
Default : Yes
Forced : No


点击图片可查看大图

软字幕无法在截图上展现,HDR版本/杜比视界版本截图会出现颜色异常,请使用支持的设备播放!

部分资源为软字幕,移动端推荐播放器:MxPlayer,nPlayer,infuse ,其他播放器请自行尝试。

部分资源为软字幕,电脑端推荐播放器:PotPlayer,完美解码,KMPLAYER,其他播放器请自行尝试。

下载端推荐纯BT下载软件:qBittorrent,Bitcomet,uTorrent ,其他下载软件请自行尝试。不支持吸血迅雷。

上传的附件:
最新回复 (0)