2024 韩国 剧情 WEB-1080P 毕业[第09-10集][中文字幕].The.Midnight.Romance.in.Hagwon.S01.1080p.HamiVideo.WEB-DL.AAC2.0.H.264-BlackTV 3.89GB

RAY20920M 2024-05-27 10:12 2511


完整标题:毕业[第09-10集][中文字幕].The.Midnight.Romance.in.Hagwon.S01.1080p.HamiVideo.WEB-DL.AAC2.0.H.264-BlackTV 3.89GB




◎标  题 毕业
◎译  名 Graduation / The Midnight Romance in Hagwon
◎片  名 졸업
◎年  代 2024
◎产  地 韩国
◎类  别 剧情 / 爱情
◎语  言 韩语
◎IMDb链接 https://www.imdb.com/title/tt29839098/
◎豆瓣链接 https://movie.douban.com/subject/36318333/
◎导  演 安畔锡 Pan-suk Ahn
◎演  员 郑丽媛 Ryeo-won Jeong
      魏嘏隽 Ha-joon Wi
      苏珠妍 Joo-yeon So
      申柱协 Joo-hyup Shin
      吴万锡 Man-seok Oh
      李圭成 Gyoo-seong Lee
      徐正妍 Seo Jung-yeon
      张素妍 So-yeon Jang
      尹福仁 Bokin Yoon
      李时勋 Si-hoon Lee

◎简  介
    讲述老练的学院教师徐惠珍(郑丽媛 饰)与时隔十年回来打乱她内心又胆大妄为的弟子李俊浩(魏嘏隽 饰)之间隐秘又甜蜜的现实罗曼史。

##### MediaInfo ######
General
Unique ID : 233502592608550286309818368528496568436 (0xAFAAF6A939E4B2B899C767CDE4D9A874)
Complete name : The.Midnight.Romance.in.Hagwon.S01E09.1080p.HamiVideo.WEB-DL.AAC2.0.H.264-BlackTV.mkv
Duration : 36 min 43 s
Overall bit rate : 7 937 kb/s

Video
ID : 1
Format : AVC
Format/Info : Advanced Video Codec
Format profile : High@L4
Format settings : CABAC / 3 Ref Frames
Format settings, CABAC : Yes
Format settings, Reference frames : 3 frames
Format settings, GOP : M=1, N=30
Codec ID : V_MPEG4/ISO/AVC
Duration : 36 min 43 s
Bit rate : 7 872 kb/s
Width : 1 920 pixels
Height : 1 080 pixels
Display aspect ratio : 16:9
Frame rate mode : Constant
Frame rate : 29.970 (29970/1000) FPS
Color space : YUV
Chroma subsampling : 4:2:0
Bit depth : 8 bits
Scan type : Progressive
Bits/(Pixel*Frame) : 0.127
Stream size : 2.00 GiB (98%)
Writing library : x264 core 157 r2935 545de2f
Encoding settings : cabac=1 / ref=3 / deblock=1:0:0 / analyse=0x3:0x113 / me=hex / subme=7 / psy=1 / psy_rd=1.00:0.00 / mixed_ref=1 / me_range=16 / chroma_me=1 / trellis=1 / 8x8dct=1 / cqm=0 / deadzone=21,11 / fast_pskip=1 / chroma_qp_offset=-2 / threads=34 / lookahead_threads=5 / sliced_threads=0 / nr=0 / decimate=1 / interlaced=0 / bluray_compat=0 / constrained_intra=0 / bframes=0 / weightp=2 / keyint=30 / keyint_min=16 / scenecut=0 / intra_refresh=0 / rc_lookahead=30 / rc=abr / mbtree=1 / bitrate=7872 / ratetol=1.0 / qcomp=0.60 / qpmin=0 / qpmax=69 / qpstep=4 / vbv_maxrate=8000 / vbv_bufsize=7872 / nal_hrd=none / filler=0 / ip_ratio=1.40 / aq=1:1.00
Language : Korean
Default : Yes
Forced : No

Audio
ID : 2
Format : AAC LC
Format/Info : Advanced Audio Codec Low Complexity
Codec ID : A_AAC-2
Duration : 36 min 43 s
Bit rate : 128 kb/s
Channel(s) : 2 channels
Channel layout : L R
Sampling rate : 48.0 kHz
Frame rate : 46.875 FPS (1024 SPF)
Compression mode : Lossy
Stream size : 33.7 MiB (2%)
Language : Korean
Default : Yes
Forced : No


点击图片可查看大图

软字幕无法在截图上展现,HDR版本/杜比视界版本截图会出现颜色异常,请使用支持的设备播放!

部分资源为软字幕,移动端推荐播放器:MxPlayer,nPlayer,infuse ,其他播放器请自行尝试。

部分资源为软字幕,电脑端推荐播放器:PotPlayer,完美解码,KMPLAYER,其他播放器请自行尝试。

下载端推荐纯BT下载软件:qBittorrent,Bitcomet,uTorrent ,其他下载软件请自行尝试。不支持吸血迅雷。

上传的附件:
最新回复 (0)