2024 韩国 剧情 WEB-1080P 我们家[第01-02集][简繁英字幕].Bitter.Sweet.Hell.S01.1080p.Viu.WEB-DL.AAC2.0.H.264-BlackTV 1.80GB

MAY20919R 2024-05-27 11:18 1153


完整标题:我们家[第01-02集][简繁英字幕].Bitter.Sweet.Hell.S01.1080p.Viu.WEB-DL.AAC2.0.H.264-BlackTV 1.80GB




◎标  题 我们家
◎译  名 Bitter Sweet Hell
◎片  名 우리, 집
◎年  代 2024
◎产  地 韩国
◎类  别 剧情 / 喜剧
◎语  言 韩语
◎IMDb链接 https://www.imdb.com/title/tt26626047/
◎豆瓣链接 https://movie.douban.com/subject/36638322/
◎导  演 李东贤 Dong-hyeon Lee
◎编  剧 南智妍 Nam Ji-Yeon
◎演  员 金喜善 Hee-seon Kim
      李慧英 Hye-young Lee
      金南熙 Kim Nam Hee
      申素率 So-yul Shin
      李多斌 Da Bin-Lee
      黄灿盛 Chan-sung Hwang
      朴宰灿 Park Jae Chan
      郑干柱 Gun-joo Jung

◎简  介
    是一部人性黑色喜剧,讲述了公认的大韩民国最佳家庭心理咨询医生主人公被不明身份的威胁犯影响到自己的职业和家庭,并与推理小说作家婆婆合作守护家人的故事。

##### MediaInfo ######
General
Unique ID : 280516864241654724333578379214348481550 (0xD3099537497275BFFC609CC6D049F40E)
Complete name : Bitter.Sweet.Hell.S01E01.1080p.Viu.WEB-DL.AAC2.0.H.264-BlackTV.mkv
Duration : 1 h 1 min
Overall bit rate mode : Variable
Overall bit rate : 2 021 kb/s

Video
ID : 1
Format : AVC
Format/Info : Advanced Video Codec
Format profile : High@L4.1
Format settings : CABAC / 4 Ref Frames
Format settings, CABAC : Yes
Format settings, Reference frames : 4 frames
Codec ID : V_MPEG4/ISO/AVC
Duration : 1 h 1 min
Bit rate mode : Variable
Bit rate : 1 922 kb/s
Maximum bit rate : 4 500 kb/s
Width : 1 920 pixels
Height : 1 080 pixels
Display aspect ratio : 16:9
Frame rate mode : Constant
Frame rate : 29.970 (30000/1001) FPS
Original frame rate : 29.970 (29970/1000) FPS
Color space : YUV
Chroma subsampling : 4:2:0
Bit depth : 8 bits
Scan type : Progressive
Bits/(Pixel*Frame) : 0.031
Stream size : 847 MiB (95%)
Writing library : VOLO1.4.1
Default : Yes
Forced : No

Audio
ID : 2
Format : AAC LC
Format/Info : Advanced Audio Codec Low Complexity
Codec ID : A_AAC-2
Duration : 1 h 1 min
Bit rate : 96.0 kb/s
Channel(s) : 2 channels
Channel layout : L R
Sampling rate : 48.0 kHz
Frame rate : 46.875 FPS (1024 SPF)
Compression mode : Lossy
Delay relative to video : -42 ms
Stream size : 42.3 MiB (5%)
Default : Yes
Forced : No

Text #1
ID : 3
Format : UTF-8
Codec ID : S_TEXT/UTF8
Codec ID/Info : UTF-8 Plain Text
Duration : 1 h 1 min
Bit rate : 49 b/s
Frame rate : 0.206 FPS
Count of elements : 761
Stream size : 22.3 KiB (0%)
Title : English
Language : English
Default : No
Forced : No

Text #2
ID : 4
Format : UTF-8
Codec ID : S_TEXT/UTF8
Codec ID/Info : UTF-8 Plain Text
Duration : 58 min 26 s
Bit rate : 42 b/s
Frame rate : 0.230 FPS
Count of elements : 805
Stream size : 18.3 KiB (0%)
Title : Simplified
Language : Chinese
Default : No
Forced : No

Text #3
ID : 5
Format : UTF-8
Codec ID : S_TEXT/UTF8
Codec ID/Info : UTF-8 Plain Text
Duration : 58 min 26 s
Bit rate : 42 b/s
Frame rate : 0.230 FPS
Count of elements : 805
Stream size : 18.3 KiB (0%)
Title : Traditional
Language : Chinese
Default : Yes
Forced : No


点击图片可查看大图

软字幕无法在截图上展现,HDR版本/杜比视界版本截图会出现颜色异常,请使用支持的设备播放!

部分资源为软字幕,移动端推荐播放器:MxPlayer,nPlayer,infuse ,其他播放器请自行尝试。

部分资源为软字幕,电脑端推荐播放器:PotPlayer,完美解码,KMPLAYER,其他播放器请自行尝试。

下载端推荐纯BT下载软件:qBittorrent,Bitcomet,uTorrent ,其他下载软件请自行尝试。不支持吸血迅雷。

上传的附件:
最新回复 (0)