2024 美国 剧情 WEB-1080P 烈焰国度 第二季[全10集][无字片源].Fire.Country.S02.1080p.Paramount/.WEB-DL.DDP.5.1.H.264-BlackTV 13.37GB

Katt2092T 2024-05-27 16:29 2548


完整标题:烈焰国度 第二季[全10集][无字片源].Fire.Country.S02.1080p.Paramount/.WEB-DL.DDP.5.1.H.264-BlackTV 13.37GB




◎标  题 烈焰国度 第二季
◎片  名 Fire Country Season 2
◎年  代 2024
◎产  地 美国
◎类  别 剧情
◎语  言 英语
◎IMDb评分 8.4/10 (85人评价)
◎IMDb链接 https://www.imdb.com/title/tt22864346/
◎豆瓣链接 https://movie.douban.com/subject/36173882/
◎导  演 比尔·博普 Bill Purple
◎编  剧 琼·拉特 Joan Rater
      托尼·佩兰 Tony Phelan
      麦克斯·泰瑞奥 Max Thieriot
      Tia Napolitano
◎演  员 麦克斯·泰瑞奥 Max Thieriot
      凯文·阿历詹卓 Kevin Alejandro
      乔丹·考维 Jordan Calloway
      斯蒂芬妮·阿西拉 Stephanie Arcila
      朱尔斯·拉蒂默 Jules Latimer
      戴安·法尔 Diane Farr
      比利·伯克 Billy Burke
      莫蕾娜·巴卡琳 Morena Baccarin
      安德里亚·布鲁克斯 Andrea Brooks
      卡诺阿·古 Kanoa Goo
      丽贝卡·麦德 Rebecca Mader

##### MediaInfo ######
General
Unique ID : 27990934583003796386227021075358089693 (0x150EDB9FE3DCCE7AE9A6A618728701DD)
Complete name : Fire.Country.S02E01.Somethings.Coming.1080p.Paramount+.WEB-DL.DDP.5.1.H.264-BlackTV.mkv
Duration : 43 min 36 s
Overall bit rate : 4 637 kb/s

Video
ID : 1
Format : AVC
Format/Info : Advanced Video Codec
Format profile : High@L4
Format settings : CABAC / 4 Ref Frames
Format settings, CABAC : Yes
Format settings, Reference frames : 4 frames
Codec ID : V_MPEG4/ISO/AVC
Duration : 43 min 36 s
Bit rate : 4 500 kb/s
Width : 1 920 pixels
Height : 1 080 pixels
Display aspect ratio : 16:9
Frame rate mode : Constant
Frame rate : 23.976 (24000/1001) FPS
Color space : YUV
Chroma subsampling : 4:2:0
Bit depth : 8 bits
Scan type : Progressive
Bits/(Pixel*Frame) : 0.091
Stream size : 1.35 GiB (96%)
Writing library : x264 core 164 r3107 a8b68eb
Encoding settings : cabac=1 / ref=4 / deblock=1:0:0 / analyse=0x3:0x113 / me=hex / subme=8 / psy=1 / psy_rd=1.00:0.00 / mixed_ref=1 / me_range=16 / chroma_me=1 / trellis=2 / 8x8dct=1 / cqm=0 / deadzone=21,11 / fast_pskip=1 / chroma_qp_offset=-2 / threads=12 / lookahead_threads=2 / sliced_threads=0 / nr=0 / decimate=1 / interlaced=0 / bluray_compat=0 / stitchable=1 / constrained_intra=0 / bframes=3 / b_pyramid=2 / b_adapt=1 / b_bias=0 / direct=3 / weightb=1 / open_gop=0 / weightp=2 / keyint=48 / keyint_min=4 / scenecut=0 / intra_refresh=0 / rc_lookahead=48 / rc=2pass / mbtree=1 / bitrate=4500 / ratetol=1.0 / qcomp=0.60 / qpmin=0 / qpmax=69 / qpstep=4 / cplxblur=20.0 / qblur=0.5 / vbv_maxrate=5400 / vbv_bufsize=4500 / nal_hrd=none / filler=0 / ip_ratio=1.40 / aq=1:1.00
Language : English
Default : Yes
Forced : No
Color range : Limited
Color primaries : BT.709
Transfer characteristics : BT.709
Matrix coefficients : BT.709

Audio
ID : 2
Format : E-AC-3
Format/Info : Enhanced AC-3
Commercial name : Dolby Digital Plus
Codec ID : A_EAC3
Duration : 43 min 36 s
Bit rate mode : Constant
Bit rate : 192 kb/s
Channel(s) : 6 channels
Channel layout : L R C LFE Ls Rs
Sampling rate : 48.0 kHz
Frame rate : 31.250 FPS (1536 SPF)
Compression mode : Lossy
Stream size : 59.9 MiB (4%)
Language : English
Service kind : Complete Main
Default : Yes
Forced : No

Text
ID : 3
Format : UTF-8
Codec ID : S_TEXT/UTF8
Codec ID/Info : UTF-8 Plain Text
Duration : 43 min 6 s
Bit rate : 83 b/s
Frame rate : 0.364 FPS
Count of elements : 942
Stream size : 26.3 KiB (0%)
Title : SDH
Language : English
Default : No
Forced : No

Menu
00:00:00.000 : en:Chapter 01


点击图片可查看大图

软字幕无法在截图上展现,HDR版本/杜比视界版本截图会出现颜色异常,请使用支持的设备播放!

部分资源为软字幕,移动端推荐播放器:MxPlayer,nPlayer,infuse ,其他播放器请自行尝试。

部分资源为软字幕,电脑端推荐播放器:PotPlayer,完美解码,KMPLAYER,其他播放器请自行尝试。

下载端推荐纯BT下载软件:qBittorrent,Bitcomet,uTorrent ,其他下载软件请自行尝试。不支持吸血迅雷。

上传的附件:
最新回复 (0)