2024 美国 剧情 WEB-4K 同情者[HDR/杜比视界双版本][全7集][简繁英字幕].2024.2160p.MAX.WEB-DL.x265.DV.HDR.DDP5.1.Atmos-ZeroTV 61.41GB

MAY20919R 2024-05-27 18:56 4280


完整标题:同情者[HDR/杜比视界双版本][全7集][简繁英字幕].2024.2160p.MAX.WEB-DL.x265.DV.HDR.DDP5.1.Atmos-ZeroTV 61.41GB




◎标  题 同情者
◎译  名 동조자
◎片  名 The Sympathizer
◎年  代 2024
◎产  地 美国
◎类  别 剧情 / 惊悚 / 历史 / 战争
◎语  言 英语 / 越南语
◎IMDb评分 8.2/10 (24人评价)
◎IMDb链接 https://www.imdb.com/title/tt14404618/
◎豆瓣链接 https://movie.douban.com/subject/35425497/
◎导  演 朴赞郁 Chan-wook Park
      费尔南多·梅里尔斯 Fernando Meirelles
      马克·穆登 Marc Munden
◎编  剧 唐·麦凯勒 Don McKellar
      阮清越 Viet Thanh Nguyen
◎演  员 小罗伯特·唐尼 Robert Downey Jr.
      侯宣德 Hoa Xuande
      吴珊卓 Sandra Oh
      弗雷德·阮 Fred Nguyen Khan
      端·勒 Toan Le
      阮高祺缘 Nguyen Cao Ky Duyen
      翘征 Kieu Chinh
      斯科特·李 Scott Ly
      凯利·陈 Kayli Tran
      竹艳 Truc Diem
      埃文·沙夫兰 Evan Shafran
      鲍勃·克莱德宁 Bob Clendenin
      Caitlin O'Connor Caitlin O'Connor
      马德琳·韦德 Madeleine Wade
      刘思思 Cici Lau
      Grace Gordon Grace Gordon
      艾伦·重 Alan Trong
      Vy Le
      Maria Bata Maria Bata
      Phong Le
      Tan Ly
      John Garrett Mahlmeister
      Siena Werber
      VyVy Nguyen
      Tom Dang
      Cody Schultz

◎简  介
    改编自阮清越的普利策获奖同名小说,是一部间谍惊悚兼跨文化讽刺类型的剧集。讲述了一名法越混血的越共间谍在越战最后几天里的斗争,以及他作为难民在洛杉矶的新生活,在那里他了解到自己的间谍生涯并没有结束。

##### MediaInfo ######
General
Unique ID : 38097997455444192759835034059346412581 (0x1CA9684C282E045D5235AAF2982E0425)
Complete name : The.Sympathizer.S01E01.2024.2160p.MAX.WEB-DL.x265.DV.HDR.DDP5.1.Atmos-ZeroTV.mkv
Duration : 57 min 15 s
Overall bit rate : 21.6 Mb/s

Video
ID : 1
Format : HEVC
Format/Info : High Efficiency Video Coding
Format profile : Main 10@L5.1@Main
HDR format : Dolby Vision, Version 1.0, dvhe.08.06, BL+RPU, HDR10 compatible / SMPTE ST 2086, HDR10 compatible
Codec ID : V_MPEGH/ISO/HEVC
Duration : 57 min 15 s
Bit rate : 21.0 Mb/s
Width : 3 840 pixels
Height : 1 920 pixels
Display aspect ratio : 2.000
Frame rate mode : Constant
Frame rate : 23.976 (24000/1001) FPS
Color space : YUV
Chroma subsampling : 4:2:0 (Type 0)
Bit depth : 10 bits
Bits/(Pixel*Frame) : 0.119
Stream size : 8.39 GiB (97%)
Writing library : x265 3.5+1-f0c1022b6:[Linux][GCC 10.2.1][64 bit] 10bit
Encoding settings : cpuid=1176575 / frame-threads=4 / wpp / no-pmode / no-pme / no-psnr / no-ssim / log-level=2 / input-csp=1 / input-res=3840x1920 / interlace=0 / total-frames=0 / level-idc=0 / high-tier=0 / uhd-bd=0 / ref=3 / no-allow-non-conformance / repeat-headers / annexb / aud / no-eob / no-eos / hrd / info / hash=0 / no-temporal-layers / no-open-gop / min-keyint=96 / keyint=96 / gop-lookahead=0 / bframes=4 / b-adapt=2 / b-pyramid / bframe-bias=0 / rc-lookahead=96 / lookahead-slices=8 / scenecut=40 / no-hist-scenecut / radl=0 / no-splice / no-intra-refresh / ctu=64 / min-cu-size=8 / no-rect / no-amp / max-tu-size=32 / tu-inter-depth=1 / tu-intra-depth=1 / limit-tu=0 / rdoq-level=0 / dynamic-rd=0.00 / no-ssim-rd / signhide / no-tskip / nr-intra=0 / nr-inter=0 / no-constrained-intra / strong-intra-smoothing / max-merge=3 / limit-refs=1 / no-limit-modes / me=1 / subme=2 / merange=57 / temporal-mvp / no-frame-dup / no-hme / weightp / weightb / no-analyze-src-pics / deblock=0:0 / no-sao / no-sao-non-deblock / rd=3 / selective-sao=0 / early-skip / rskip / no-fast-intra / no-tskip-fast / no-cu-lossless / b-intra / no-splitrd-skip / rdpenalty=0 / psy-rd=2.00 / psy-rdoq=0.00 / no-rd-refine / no-lossless / cbqpoffs=0 / crqpoffs=0 / rc=crf / crf=11.0 / qcomp=0.60 / qpstep=4 / stats-write=0 / stats-read=0 / vbv-maxrate=21900 / vbv-bufsize=40000 / vbv-init=0.9 / min-vbv-fullness=50.0 / max-vbv-fullness=80.0 / crf-max=0.0 / crf-min=0.0 / ipratio=1.40 / pbratio=1.30 / aq-mode=2 / aq-strength=1.00 / cutree / zone-count=0 / no-strict-cbr / qg-size=32 / no-rc-grain / qpmax=69 / qpmin=0 / no-const-vbv / sar=1 / overscan=0 / videoformat=5 / range=0 / colorprim=9 / transfer=16 / colormatrix=9 / chromaloc=1 / chromaloc-top=0 / chromaloc-bottom=0 / display-window=0 / master-display=G(8500,39850)B(6550,2300)R(35400,14600)WP(15635,16450)L(10000000,1) / cll=267,229 / min-luma=0 / max-luma=1023 / log2-max-poc-lsb=8 / vui-timing-info / vui-hrd-info / slices=1 / no-opt-qp-pps / no-opt-ref-list-length-pps / no-multi-pass-opt-rps / scenecut-bias=0.05 / hist-threshold=0.03 / no-opt-cu-delta-qp / no-aq-motion / hdr10 / hdr10-opt / no-dhdr10-opt / no-idr-recovery-sei / analysis-reuse-level=0 / analysis-save-reuse-level=0 / analysis-load-reuse-level=0 / scale-factor=0 / refine-intra=0 / refine-inter=0 / refine-mv=1 / refine-ctu-distortion=0 / no-limit-sao / ctu-info=0 / no-lowpass-dct / refine-analysis-type=0 / copy-pic=1 / max-ausize-factor=1.0 / no-dynamic-refine / no-single-sei / no-hevc-aq / no-svt / no-field / qp-adaptation-range=1.00 / scenecut-aware-qp=0conformance-window-offsets / right=0 / bottom=0 / decoder-max-rate=0 / no-vbv-live-multi-pass
Default : Yes
Forced : No
Color range : Limited
Color primaries : BT.2020
Transfer characteristics : PQ
Matrix coefficients : BT.2020 non-constant
Mastering display color primaries : BT.2020
Mastering display luminance : min: 0.0001 cd/m2, max: 1000 cd/m2
Maximum Content Light Level : 267 cd/m2
Maximum Frame-Average Light Level : 229 cd/m2

Audio
ID : 2
Format : E-AC-3 JOC
Format/Info : Enhanced AC-3 with Joint Object Coding
Commercial name : Dolby Digital Plus with Dolby Atmos
Codec ID : A_EAC3
Duration : 57 min 15 s
Bit rate mode : Constant
Bit rate : 640 kb/s
Channel(s) : 6 channels
Channel layout : L R C LFE Ls Rs
Sampling rate : 48.0 kHz
Frame rate : 31.250 FPS (1536 SPF)
Compression mode : Lossy
Stream size : 262 MiB (3%)
Language : English
Service kind : Complete Main
Default : Yes
Forced : No
Complexity index : 16
Number of dynamic objects : 15
Bed channel count : 1 channel
Bed channel configuration : LFE

Text #1
ID : 3
Format : UTF-8
Codec ID : S_TEXT/UTF8
Codec ID/Info : UTF-8 Plain Text
Duration : 56 min 56 s
Bit rate : 43 b/s
Frame rate : 0.171 FPS
Count of elements : 584
Stream size : 18.2 KiB (0%)
Language : English
Default : Yes
Forced : No

Text #2
ID : 4
Format : UTF-8
Codec ID : S_TEXT/UTF8
Codec ID/Info : UTF-8 Plain Text
Duration : 57 min 5 s
Bit rate : 70 b/s
Frame rate : 0.276 FPS
Count of elements : 944
Stream size : 29.7 KiB (0%)
Language : Spanish
Default : Yes
Forced : No

Text #3
ID : 5
Format : UTF-8
Codec ID : S_TEXT/UTF8
Codec ID/Info : UTF-8 Plain Text
Duration : 56 min 48 s
Bit rate : 55 b/s
Frame rate : 0.194 FPS
Count of elements : 660
Stream size : 23.1 KiB (0%)
Language : Portuguese
Default : Yes
Forced : No

Text #4
ID : 6
Format : UTF-8
Codec ID : S_TEXT/UTF8
Codec ID/Info : UTF-8 Plain Text
Duration : 54 min 23 s
Bit rate : 48 b/s
Frame rate : 0.195 FPS
Count of elements : 636
Stream size : 19.2 KiB (0%)
Title : Chinese Simplified
Language : Chinese
Default : Yes
Forced : No

Text #5
ID : 7
Format : UTF-8
Codec ID : S_TEXT/UTF8
Codec ID/Info : UTF-8 Plain Text
Duration : 54 min 23 s
Bit rate : 48 b/s
Frame rate : 0.195 FPS
Count of elements : 636
Stream size : 19.2 KiB (0%)
Title : Chinese Traditional
Language : Chinese
Default : No
Forced : No


点击图片可查看大图

软字幕无法在截图上展现,HDR版本/杜比视界版本截图会出现颜色异常,请使用支持的设备播放!

部分资源为软字幕,移动端推荐播放器:MxPlayer,nPlayer,infuse ,其他播放器请自行尝试。

部分资源为软字幕,电脑端推荐播放器:PotPlayer,完美解码,KMPLAYER,其他播放器请自行尝试。

下载端推荐纯BT下载软件:qBittorrent,Bitcomet,uTorrent ,其他下载软件请自行尝试。不支持吸血迅雷。

上传的附件:
最新回复 (0)