2023 美国 喜剧 WEB-1080P 辛普森一家 第三十五季[第14集][简繁英字幕].The.Simpsons.S35.2023.1080p.DSNP.WEB-DL.H264.DDP5.1-ZeroTV 0.78GB

RAY20920M 2024-05-30 01:39 4510


完整标题:辛普森一家 第三十五季[第14集][简繁英字幕].The.Simpsons.S35.2023.1080p.DSNP.WEB-DL.H264.DDP5.1-ZeroTV 0.78GB




◎标  题 辛普森一家 第三十五季
◎片  名 The Simpsons Season 35
◎年  代 2023
◎产  地 美国
◎类  别 喜剧 / 动画
◎语  言 英语
◎IMDb评分 6.7/10 (483人评价)
◎IMDb链接 https://www.imdb.com/title/tt26457880/
◎豆瓣评分 9.0/10 (123人评价)
◎豆瓣链接 https://movie.douban.com/subject/36220848/
◎演  员 彼得·杰克逊 Peter Jackson

◎简  介
    FOX续订《辛普森一家》第35、36季。

##### MediaInfo ######
General
Unique ID : 81774026850317473023696113417818032340 (0x3D851ACD83ED56F4373FDEC4AD0948D4)
Complete name : The.Simpsons.S35E14.2023.1080p.DSNP.WEB-DL.H264.DDP5.1-ZeroTV.mkv
Duration : 21 min 39 s
Overall bit rate mode : Variable
Overall bit rate : 5 166 kb/s

Video
ID : 1
Format : AVC
Format/Info : Advanced Video Codec
Format profile : High@L4
Format settings : CABAC / 4 Ref Frames
Format settings, CABAC : Yes
Format settings, Reference frames : 4 frames
Codec ID : V_MPEG4/ISO/AVC
Duration : 21 min 39 s
Bit rate mode : Variable
Bit rate : 4 905 kb/s
Maximum bit rate : 12.7 Mb/s
Width : 1 920 pixels
Height : 1 080 pixels
Display aspect ratio : 16:9
Frame rate mode : Constant
Frame rate : 23.976 (24000/1001) FPS
Color space : YUV
Chroma subsampling : 4:2:0
Bit depth : 8 bits
Scan type : Progressive
Bits/(Pixel*Frame) : 0.099
Stream size : 760 MiB (95%)
Default : Yes
Forced : No
Color range : Limited
Color primaries : BT.709
Transfer characteristics : BT.709
Matrix coefficients : BT.709

Audio
ID : 2
Format : E-AC-3
Format/Info : Enhanced AC-3
Commercial name : Dolby Digital Plus
Codec ID : A_EAC3
Duration : 21 min 39 s
Bit rate mode : Constant
Bit rate : 256 kb/s
Channel(s) : 6 channels
Channel layout : L R C LFE Ls Rs
Sampling rate : 48.0 kHz
Frame rate : 31.250 FPS (1536 SPF)
Compression mode : Lossy
Stream size : 39.7 MiB (5%)
Title : English
Language : English
Service kind : Complete Main
Default : Yes
Forced : No

Text #1
ID : 3
Format : UTF-8
Codec ID : S_TEXT/UTF8
Codec ID/Info : UTF-8 Plain Text
Duration : 21 min 26 s
Bit rate : 91 b/s
Frame rate : 0.318 FPS
Count of elements : 409
Stream size : 14.4 KiB (0%)
Title : Chinese (Traditional)
Language : Chinese
Default : No
Forced : No

Text #2
ID : 4
Format : UTF-8
Codec ID : S_TEXT/UTF8
Codec ID/Info : UTF-8 Plain Text
Duration : 21 min 26 s
Bit rate : 98 b/s
Frame rate : 0.310 FPS
Count of elements : 399
Stream size : 15.5 KiB (0%)
Title : Deutsch
Language : German
Default : No
Forced : No

Text #3
ID : 5
Format : UTF-8
Codec ID : S_TEXT/UTF8
Codec ID/Info : UTF-8 Plain Text
Duration : 21 min 27 s
Bit rate : 102 b/s
Frame rate : 0.347 FPS
Count of elements : 447
Stream size : 16.1 KiB (0%)
Title : English [CC]
Language : English
Default : No
Forced : No

Text #4
ID : 6
Format : UTF-8
Codec ID : S_TEXT/UTF8
Codec ID/Info : UTF-8 Plain Text
Duration : 21 min 26 s
Bit rate : 92 b/s
Frame rate : 0.307 FPS
Count of elements : 395
Stream size : 14.5 KiB (0%)
Title : Espa?ol
Language : Spanish
Default : No
Forced : No

Text #5
ID : 7
Format : UTF-8
Codec ID : S_TEXT/UTF8
Codec ID/Info : UTF-8 Plain Text
Duration : 21 min 26 s
Bit rate : 95 b/s
Frame rate : 0.299 FPS
Count of elements : 384
Stream size : 14.9 KiB (0%)
Title : Espa?ol (Latinoamericano)
Language : Spanish
Default : No
Forced : No

Text #6
ID : 8
Format : UTF-8
Codec ID : S_TEXT/UTF8
Codec ID/Info : UTF-8 Plain Text
Duration : 21 min 25 s
Bit rate : 93 b/s
Frame rate : 0.303 FPS
Count of elements : 389
Stream size : 14.7 KiB (0%)
Title : Fran?ais
Language : French
Default : No
Forced : No

Text #7
ID : 9
Format : UTF-8
Codec ID : S_TEXT/UTF8
Codec ID/Info : UTF-8 Plain Text
Duration : 21 min 22 s
Bit rate : 140 b/s
Frame rate : 0.263 FPS
Count of elements : 338
Stream size : 22.0 KiB (0%)
Title : Greek
Language : Greek
Default : No
Forced : No

Text #8
ID : 10
Format : UTF-8
Codec ID : S_TEXT/UTF8
Codec ID/Info : UTF-8 Plain Text
Duration : 21 min 26 s
Bit rate : 95 b/s
Frame rate : 0.302 FPS
Count of elements : 388
Stream size : 15.0 KiB (0%)
Title : Italiano
Language : Italian
Default : No
Forced : No

Text #9
ID : 11
Format : UTF-8
Codec ID : S_TEXT/UTF8
Codec ID/Info : UTF-8 Plain Text
Duration : 21 min 22 s
Bit rate : 94 b/s
Frame rate : 0.315 FPS
Count of elements : 404
Stream size : 14.8 KiB (0%)
Title : Japanese
Language : Japanese
Default : No
Forced : No

Text #10
ID : 12
Format : UTF-8
Codec ID : S_TEXT/UTF8
Codec ID/Info : UTF-8 Plain Text
Duration : 21 min 26 s
Bit rate : 108 b/s
Frame rate : 0.318 FPS
Count of elements : 409
Stream size : 17.1 KiB (0%)
Title : Korean
Language : Korean
Default : No
Forced : No

Text #11
ID : 13
Format : UTF-8
Codec ID : S_TEXT/UTF8
Codec ID/Info : UTF-8 Plain Text
Duration : 21 min 26 s
Bit rate : 94 b/s
Frame rate : 0.285 FPS
Count of elements : 366
Stream size : 14.8 KiB (0%)
Title : Magyar
Language : Hungarian
Default : No
Forced : No

Text #12
ID : 14
Format : UTF-8
Codec ID : S_TEXT/UTF8
Codec ID/Info : UTF-8 Plain Text
Duration : 21 min 22 s
Bit rate : 92 b/s
Frame rate : 0.308 FPS
Count of elements : 395
Stream size : 14.5 KiB (0%)
Title : Norsk
Language : Norwegian Bokmal
Default : No
Forced : No

Text #13
ID : 15
Format : UTF-8
Codec ID : S_TEXT/UTF8
Codec ID/Info : UTF-8 Plain Text
Duration : 21 min 26 s
Bit rate : 88 b/s
Frame rate : 0.316 FPS
Count of elements : 406
Stream size : 14.0 KiB (0%)
Title : Polski
Language : Polish
Default : No
Forced : No

Text #14
ID : 16
Format : UTF-8
Codec ID : S_TEXT/UTF8
Codec ID/Info : UTF-8 Plain Text
Duration : 21 min 26 s
Bit rate : 94 b/s
Frame rate : 0.309 FPS
Count of elements : 397
Stream size : 14.8 KiB (0%)
Title : Português (Brasil)
Language : Portuguese
Default : No
Forced : No

Text #15
ID : 17
Format : UTF-8
Codec ID : S_TEXT/UTF8
Codec ID/Info : UTF-8 Plain Text
Duration : 21 min 22 s
Bit rate : 91 b/s
Frame rate : 0.254 FPS
Count of elements : 326
Stream size : 14.4 KiB (0%)
Title : Roman?
Language : Romanian
Default : No
Forced : No

Text #16
ID : 18
Format : UTF-8
Codec ID : S_TEXT/UTF8
Codec ID/Info : UTF-8 Plain Text
Duration : 21 min 26 s
Bit rate : 90 b/s
Frame rate : 0.309 FPS
Count of elements : 398
Stream size : 14.3 KiB (0%)
Title : Sloven?ina
Language : Slovak
Default : No
Forced : No

Text #17
ID : 19
Format : UTF-8
Codec ID : S_TEXT/UTF8
Codec ID/Info : UTF-8 Plain Text
Duration : 21 min 22 s
Bit rate : 82 b/s
Frame rate : 0.307 FPS
Count of elements : 393
Stream size : 12.9 KiB (0%)
Title : Suomi
Language : Finnish
Default : No
Forced : No

Text #18
ID : 20
Format : UTF-8
Codec ID : S_TEXT/UTF8
Codec ID/Info : UTF-8 Plain Text
Duration : 21 min 22 s
Bit rate : 88 b/s
Frame rate : 0.289 FPS
Count of elements : 371
Stream size : 13.8 KiB (0%)
Title : Svenska
Language : Swedish
Default : No
Forced : No

Text #19
ID : 21
Format : UTF-8
Codec ID : S_TEXT/UTF8
Codec ID/Info : UTF-8 Plain Text
Duration : 21 min 26 s
Bit rate : 87 b/s
Frame rate : 0.291 FPS
Count of elements : 374
Stream size : 13.8 KiB (0%)
Title : ?e?tina
Language : Czech
Default : No
Forced : No

Text #20
ID : 22
Format : UTF-8
Codec ID : S_TEXT/UTF8
Codec ID/Info : UTF-8 Plain Text
Duration : 21 min 26 s
Bit rate : 91 b/s
Frame rate : 0.318 FPS
Count of elements : 409
Stream size : 14.4 KiB (0%)
Title : Chinese (Simplified)
Language : Chinese
Default : Yes
Forced : No


点击图片可查看大图

软字幕无法在截图上展现,HDR版本/杜比视界版本截图会出现颜色异常,请使用支持的设备播放!

部分资源为软字幕,移动端推荐播放器:MxPlayer,nPlayer,infuse ,其他播放器请自行尝试。

部分资源为软字幕,电脑端推荐播放器:PotPlayer,完美解码,KMPLAYER,其他播放器请自行尝试。

下载端推荐纯BT下载软件:qBittorrent,Bitcomet,uTorrent ,其他下载软件请自行尝试。不支持吸血迅雷。

上传的附件:
最新回复 (0)