2024 大陆 剧情 WEB-4K 但愿人长久[高码版][第07-08集][国语配音/中文字幕].Teresa.Teng.S01.2024.2160p.HQ.WEB-DL.H265.AAC-BlackTV 12.62GB

RAY20920M 2024-06-11 21:23 1140


完整标题:但愿人长久[高码版][第07-08集][国语配音/中文字幕].Teresa.Teng.S01.2024.2160p.HQ.WEB-DL.H265.AAC-BlackTV 12.62GB




◎标  题 但愿人长久
◎译  名 邓丽君 / 邓丽君之我只在乎你 / Teresa Teng
◎年  代 2024
◎产  地 中国大陆 / 中国台湾
◎类  别 剧情 / 传记
◎语  言 汉语普通话
◎IMDb链接 https://www.imdb.com/title/tt9636134/
◎豆瓣链接 https://movie.douban.com/subject/26665271/
◎导  演 吴蒙恩 Meng-En Wu
◎编  剧 李顺慈 Shunci Li
◎演  员 陈妍希 Michelle Chen
      何润东 Peter Ho
      江珊 Shan Jiang
      彭冠英 Guanying Peng
      侯勇 Yong Hou
      吕一 Yi Lü
      倪虹洁 Hongjie Ni
      张晨光 Morning Chang
      寇世勋 Johnny Kou Hsi-Shun
      李学政 Xuezheng Li
      陈翊曈 Yitong Chen
      蛤小百合 Sayuri
      冈村秀 Shu Okamura
      大须贺王子 Oji Osuga

◎简  介
    1953年那个初冬的早晨,台湾眷村里,邓家第四个孩子,“丫头”邓丽君(陈妍希 饰)诞生。丫头在歌唱方面的才华幼时便已显现,无奈父亲邓枢坚决反对。邓枢退伍,开始了市场摆摊生涯。丫头不解父亲心中的抑郁和乡愁,但她成了父亲卖包子馒头的小帮手。小学毕业后,丫头未能考上初中。但已透过电台歌唱比赛获胜成为歌唱节目的固定班底。邓枢在市场摆摊与流氓发生冲突,被殴打成伤,还闹上了官司。深夜里,夫妇俩感慨这一切只因没有固定店面所致。丫头听在耳里,心疼父母,成为签约歌手并预支薪水,用这笔钱替父亲顶下了店面。邓枢知道后感动不已。丫头终于顺利登台,获得好评无数。

##### MediaInfo ######
General
Unique ID : 168057013941054942924407153228235276159 (0x7E6E9A82572A8A0E387BB4DD8DCDFF7F)
Complete name : Teresa.Teng.S01E07.2024.2160p.HQ.WEB-DL.H265.AAC-BlackTV.mkv
Duration : 44 min 59 s
Overall bit rate : 20.1 Mb/s

Video
ID : 1
Format : HEVC
Format/Info : High Efficiency Video Coding
Format profile : Main 10@L5.1@Main
Codec ID : V_MPEGH/ISO/HEVC
Duration : 44 min 59 s
Bit rate : 19.8 Mb/s
Width : 3 840 pixels
Height : 2 160 pixels
Display aspect ratio : 16:9
Frame rate mode : Constant
Frame rate : 25.000 FPS
Color space : YUV
Chroma subsampling : 4:2:0
Bit depth : 10 bits
Bits/(Pixel*Frame) : 0.096
Stream size : 6.24 GiB (99%)
Language : Chinese
Default : Yes
Forced : No
Color range : Limited
Color primaries : BT.709
Transfer characteristics : BT.709
Matrix coefficients : BT.709
VENDOR_ID : [0][0][0][0]

Audio
ID : 2
Format : AAC LC
Format/Info : Advanced Audio Codec Low Complexity
Codec ID : A_AAC-2
Duration : 44 min 59 s
Bit rate : 256 kb/s
Channel(s) : 2 channels
Channel layout : L R
Sampling rate : 44.1 kHz
Frame rate : 43.066 FPS (1024 SPF)
Compression mode : Lossy
Stream size : 82.4 MiB (1%)
Title : Mandarin [AAC2.0]
Language : Chinese
Default : No
Forced : No
VENDOR_ID : [0][0][0][0]


点击图片可查看大图

软字幕无法在截图上展现,HDR版本/杜比视界版本截图会出现颜色异常,请使用支持的设备播放!

部分资源为软字幕,移动端推荐播放器:MxPlayer,nPlayer,infuse ,其他播放器请自行尝试。

部分资源为软字幕,电脑端推荐播放器:PotPlayer,完美解码,KMPLAYER,其他播放器请自行尝试。

下载端推荐纯BT下载软件:qBittorrent,Bitcomet,uTorrent ,其他下载软件请自行尝试。不支持吸血迅雷。

上传的附件:
最新回复 (0)