2024 大陆 剧情 WEB-4K 柳叶摘星辰[全24集][国语配音/中文字幕].My.Wife's.Double.Life.S01.2024.2160p.WEB-DL.H265.DDP5.1-ZeroTV 46.33GB

Katt2092T 2024-06-11 21:24 564


完整标题:柳叶摘星辰[全24集][国语配音/中文字幕].My.Wife's.Double.Life.S01.2024.2160p.WEB-DL.H265.DDP5.1-ZeroTV 46.33GB




◎标  题 柳叶摘星辰
◎译  名 My wife is a thief
◎年  代 2024
◎产  地 中国大陆
◎类  别 剧情 / 古装
◎语  言 汉语普通话
◎IMDb链接 https://www.imdb.com/title/tt32260234/
◎豆瓣链接 https://movie.douban.com/subject/35202736/
◎导  演 赵锦焘 Jintao Zhao
◎编  剧 高小娴 Xiaoxian Gao
◎演  员 唐晓天 Xiaotian Tang
      庄达菲 Dafei Zhuang
      林枫松 Fengsong Lin
      程梓 Zi Cheng
      李沛恩 Peien Li
      李博洋 Boyang Li
      王子桀 Zijie Wang
      黄甫杰
      沈盛男 Shengnan Shen
      陈思澈 Sichen Chen
      张杍涵 Zihan Zhang

◎简  介
    京城传闻的神秘窃贼“柳叶贼”,其名柳蓉,十三年前在南方水患中被苏国公所救,为报答其救命之恩,柳蓉以苏国公之女“苏锦珍”的身份嫁给许慕辰。夫妻双方对于这段“有名无实”的婚姻并无感情。柳蓉表面上是温柔体贴的许夫人,暗地里则是“日走千家、夜盗百户”的大盗“柳叶贼”。柳蓉在苏国公的指示下多次潜入许府各个地方寻找玉佩,同时还以柳叶贼的身份屡次与许慕辰交锋,许慕辰不知道柳叶贼竟是自己床边的妻子苏锦珍。许慕辰每每给“柳叶贼”制造麻烦,回家后都会被自己的夫人“苏锦珍”整治一番。在不断的日常相处和“官贼交锋”中二人渐生真情……

##### MediaInfo ######
General
Unique ID : 70446764534784898609839754429182308233 (0x34FF8DA70D8647326F6CD158641CEF89)
Complete name : 柳叶摘星辰.My.Wife's.Double.Life.S01E01.2024.2160p.WEB-DL.H265.DDP5.1-ZeroTV.mkv
Duration : 45 min 53 s
Overall bit rate : 5 633 kb/s

Video
ID : 1
Format : HEVC
Format/Info : High Efficiency Video Coding
Format profile : Main@L5@Main
Codec ID : V_MPEGH/ISO/HEVC
Duration : 45 min 52 s
Bit rate : 5 183 kb/s
Width : 3 840 pixels
Height : 2 160 pixels
Display aspect ratio : 16:9
Frame rate mode : Constant
Frame rate : 25.000 FPS
Color space : YUV
Chroma subsampling : 4:2:0
Bit depth : 8 bits
Bits/(Pixel*Frame) : 0.025
Stream size : 1.66 GiB (92%)
Default : Yes
Forced : No

Audio #1
ID : 2
Format : AAC LC
Format/Info : Advanced Audio Codec Low Complexity
Codec ID : A_AAC-2
Duration : 45 min 53 s
Bit rate : 192 kb/s
Channel(s) : 2 channels
Channel layout : L R
Sampling rate : 44.1 kHz
Frame rate : 43.066 FPS (1024 SPF)
Compression mode : Lossy
Stream size : 63.0 MiB (3%)
Language : Chinese
Default : No
Forced : No

Audio #2
ID : 3
Format : E-AC-3
Format/Info : Enhanced AC-3
Commercial name : Dolby Digital Plus
Codec ID : A_EAC3
Duration : 45 min 52 s
Bit rate mode : Constant
Bit rate : 256 kb/s
Channel(s) : 6 channels
Channel layout : L R C LFE Ls Rs
Sampling rate : 48.0 kHz
Frame rate : 31.250 FPS (1536 SPF)
Compression mode : Lossy
Stream size : 84.0 MiB (5%)
Language : Chinese
Service kind : Complete Main
Default : Yes
Forced : No


点击图片可查看大图

软字幕无法在截图上展现,HDR版本/杜比视界版本截图会出现颜色异常,请使用支持的设备播放!

部分资源为软字幕,移动端推荐播放器:MxPlayer,nPlayer,infuse ,其他播放器请自行尝试。

部分资源为软字幕,电脑端推荐播放器:PotPlayer,完美解码,KMPLAYER,其他播放器请自行尝试。

下载端推荐纯BT下载软件:qBittorrent,Bitcomet,uTorrent ,其他下载软件请自行尝试。不支持吸血迅雷。

上传的附件:
最新回复 (0)