2024 大陆 剧情 WEB-4K 玫瑰的故事[第06-07集][国语配音/中文字幕].Lost.Romance.S01.2024.2160p.WEB-DL.H265.DDP2.0-ZeroTV 3.30GB

RAY20920M 2024-06-11 21:25 1481


完整标题:玫瑰的故事[第06-07集][国语配音/中文字幕].Lost.Romance.S01.2024.2160p.WEB-DL.H265.DDP2.0-ZeroTV 3.30GB




◎标  题 玫瑰的故事
◎译  名 玫瑰故事 / Full Bloom / The Rose's Tale / The Tale of Rose
◎年  代 2024
◎产  地 中国大陆
◎类  别 剧情
◎语  言 汉语普通话
◎IMDb链接 https://www.imdb.com/title/tt29930328/
◎豆瓣链接 https://movie.douban.com/subject/35665988/
◎导  演 汪俊 Jun Wang
◎编  剧 李潇 Xiao Li
      王思 Si Wang
      亦舒 Shu Yi
◎演  员 刘亦菲 Yifei Liu
      佟大为 Dawei Tong
      林更新 Gengxin Lin
      万茜 Qian Wan
      林一 Yi Lin
      彭冠英 Guanying Peng
      霍建华 Wallace Huo
      朱珠 Zhu Zhu
      吴彼 Bi Wu
      王名扬 Yanyang Wang
      黄羿 Yi Huang
      夏力薪 Lixin Xia
      于慧 Hui Yu
      阎青妤 Qingyu Yan
      蓝盈莹 Lyric Lan
      陈瑶 Yao Chen
      吴玉芳 Yufang Wu
      侯长荣 Changrong Hou
      张月 Yue Zhang
      刘钧 Jun Liu
      高曙光 Shuguang Gao
      蒋雪鸣 Xueming Jiang
      啜妮 Ni Chuo
      邱心志 Hsin-chih Chiu

◎简  介
    出生于书香世家的黄亦玫(刘亦菲 饰)一路在呵护中长大,从小便展露出艺术天赋。初入职场的黄亦玫很快受到重用,与合作伙伴庄国栋相识相爱,但最终错过彼此,这段职场磨炼也令她对自己的人生有了更清晰的规划,决定重返校园求学深造。毕业后,她和学长方协文步入婚姻殿堂。可婚后两人发展方向相去甚远,最 终选择离婚。黄亦玫开始创业,在艺术品策展领域打拼出一片天地,在此期间还遇到了自己的灵魂伴侣溥家明,可溥家明只剩几个月的生命,两人这段爱情最终以生死离别画上句号。 但黄亦玫没有就此消沉,她还是一如既往地为活出更精彩的自己而努力着。

##### MediaInfo ######
General
Unique ID : 338110162558443009772362016461051799591 (0xFE5DA60E6788A6D1ED0409670C062827)
Complete name : 玫瑰的故事.Lost.Romance.S01E06.2024.2160p.WEB-DL.H265.DDP2.0-ZeroTV.mkv
Duration : 47 min 15 s
Overall bit rate : 5 233 kb/s

Video
ID : 1
Format : HEVC
Format/Info : High Efficiency Video Coding
Format profile : Main@L5@Main
Codec ID : V_MPEGH/ISO/HEVC
Duration : 47 min 14 s
Bit rate : 4 850 kb/s
Width : 3 840 pixels
Height : 2 160 pixels
Display aspect ratio : 16:9
Frame rate mode : Constant
Frame rate : 25.000 FPS
Color space : YUV
Chroma subsampling : 4:2:0
Bit depth : 8 bits
Bits/(Pixel*Frame) : 0.023
Stream size : 1.60 GiB (93%)
Writing library : Tencent-V265-1.6.9.1-p1k184g16lh64f4ra1.
Default : Yes
Forced : No
Color range : Limited
Color primaries : BT.709
Transfer characteristics : BT.709
Matrix coefficients : BT.709

Audio #1
ID : 2
Format : E-AC-3
Format/Info : Enhanced AC-3
Commercial name : Dolby Digital Plus
Codec ID : A_EAC3
Duration : 47 min 15 s
Bit rate mode : Constant
Bit rate : 256 kb/s
Channel(s) : 2 channels
Channel layout : L R
Sampling rate : 48.0 kHz
Frame rate : 31.250 FPS (1536 SPF)
Compression mode : Lossy
Delay relative to video : -42 ms
Stream size : 86.5 MiB (5%)
Title : Mandarin
Language : Chinese
Service kind : Complete Main
Default : Yes
Forced : No

Audio #2
ID : 3
Format : AAC LC
Format/Info : Advanced Audio Codec Low Complexity
Codec ID : A_AAC-2
Duration : 47 min 14 s
Bit rate : 125 kb/s
Channel(s) : 2 channels
Channel layout : L R
Sampling rate : 48.0 kHz
Frame rate : 46.875 FPS (1024 SPF)
Compression mode : Lossy
Delay relative to video : -42 ms
Stream size : 42.4 MiB (2%)
Title : Mandarin
Language : Chinese
Default : No
Forced : No


点击图片可查看大图

软字幕无法在截图上展现,HDR版本/杜比视界版本截图会出现颜色异常,请使用支持的设备播放!

部分资源为软字幕,移动端推荐播放器:MxPlayer,nPlayer,infuse ,其他播放器请自行尝试。

部分资源为软字幕,电脑端推荐播放器:PotPlayer,完美解码,KMPLAYER,其他播放器请自行尝试。

下载端推荐纯BT下载软件:qBittorrent,Bitcomet,uTorrent ,其他下载软件请自行尝试。不支持吸血迅雷。

上传的附件:
最新回复 (0)