2024 韩国 剧情 WEB-1080P 毕业[第10集][中文字幕].The.Midnight.Romance.in.Hagwon.S01.2024.1080p.Viu.WEB-DL.H264.AAC-ZeroTV 0.69GB

RAY20920M 2024-06-11 21:26 644


完整标题:毕业[第10集][中文字幕].The.Midnight.Romance.in.Hagwon.S01.2024.1080p.Viu.WEB-DL.H264.AAC-ZeroTV 0.69GB




◎标  题 毕业
◎译  名 Graduation / The Midnight Romance in Hagwon
◎片  名 졸업
◎年  代 2024
◎产  地 韩国
◎类  别 剧情 / 爱情
◎语  言 韩语
◎IMDb评分 7.5/10 (110人评价)
◎IMDb链接 https://www.imdb.com/title/tt29839098/
◎豆瓣评分 8.4/10 (2313人评价)
◎豆瓣链接 https://movie.douban.com/subject/36318333/
◎导  演 安畔锡 Pan-suk Ahn
◎编  剧 朴庆华 Kyung-hwa Park
◎演  员 郑丽媛 Ryeo-won Jeong
      魏嘏隽 Ha-joon Wi
      苏珠妍 Joo-yeon So
      申柱协 Joo-hyup Shin
      吴万锡 Man-seok Oh
      李圭成 Gyoo-seong Lee
      徐正妍 Jung-yeon Seo
      张素妍 So-yeon Jang
      尹福仁 Bokin Yoon
      李时勋 Si-hoon Lee
      车康允 Kang-yoon Cha

◎简  介
    讲述老练的学院教师徐惠珍(郑丽媛 饰)与时隔十年回来打乱她内心又胆大妄为的弟子李俊浩(魏嘏隽 饰)之间隐秘又甜蜜的现实罗曼史。

##### MediaInfo ######
General
Unique ID : 47647093768221679711473998877106865929 (0x23D87F1856A1281AA2ACA86A43FF8709)
Complete name : The.Midnight.Romance.in.Hagwon.S01E10.2024.1080p.Viu.WEB-DL.H264.AAC-ZeroTV.mkv
Duration : 1 h 10 min
Overall bit rate mode : Variable
Overall bit rate : 1 409 kb/s

Video
ID : 1
Format : AVC
Format/Info : Advanced Video Codec
Format profile : High@L4.1
Format settings : CABAC / 4 Ref Frames
Format settings, CABAC : Yes
Format settings, Reference frames : 4 frames
Codec ID : V_MPEG4/ISO/AVC
Duration : 1 h 10 min
Bit rate mode : Variable
Bit rate : 1 310 kb/s
Maximum bit rate : 4 500 kb/s
Width : 1 920 pixels
Height : 1 080 pixels
Display aspect ratio : 16:9
Frame rate mode : Constant
Frame rate : 29.970 (30000/1001) FPS
Original frame rate : 29.970 (29970/1000) FPS
Color space : YUV
Chroma subsampling : 4:2:0
Bit depth : 8 bits
Scan type : Progressive
Bits/(Pixel*Frame) : 0.021
Stream size : 660 MiB (93%)
Writing library : VOLO1.4.1
Language : Kanuri
Default : Yes
Forced : No

Audio
ID : 2
Format : AAC LC
Format/Info : Advanced Audio Codec Low Complexity
Codec ID : A_AAC-2
Duration : 1 h 10 min
Bit rate : 96.0 kb/s
Channel(s) : 2 channels
Channel layout : L R
Sampling rate : 48.0 kHz
Frame rate : 46.875 FPS (1024 SPF)
Compression mode : Lossy
Delay relative to video : -42 ms
Stream size : 48.3 MiB (7%)
Language : Kanuri
Default : Yes
Forced : No

Text #1
ID : 3
Format : UTF-8
Codec ID : S_TEXT/UTF8
Codec ID/Info : UTF-8 Plain Text
Duration : 1 h 9 min
Bit rate : 50 b/s
Frame rate : 0.228 FPS
Count of elements : 949
Stream size : 25.7 KiB (0%)
Title : Chinese Simplified
Language : Chinese
Default : Yes
Forced : No

Text #2
ID : 4
Format : UTF-8
Codec ID : S_TEXT/UTF8
Codec ID/Info : UTF-8 Plain Text
Duration : 1 h 9 min
Bit rate : 50 b/s
Frame rate : 0.231 FPS
Count of elements : 960
Stream size : 25.6 KiB (0%)
Title : Chinese Traditional
Language : Chinese
Default : No
Forced : No


点击图片可查看大图

软字幕无法在截图上展现,HDR版本/杜比视界版本截图会出现颜色异常,请使用支持的设备播放!

部分资源为软字幕,移动端推荐播放器:MxPlayer,nPlayer,infuse ,其他播放器请自行尝试。

部分资源为软字幕,电脑端推荐播放器:PotPlayer,完美解码,KMPLAYER,其他播放器请自行尝试。

下载端推荐纯BT下载软件:qBittorrent,Bitcomet,uTorrent ,其他下载软件请自行尝试。不支持吸血迅雷。

上传的附件:
最新回复 (0)