2024 韩国 剧情 WEB-1080P 无血无泪[第100集][中文字幕].The.Two.Sisters.S01.2024.1080p.Viu.WEB-DL.H264.AAC-ZeroTV 0.64GB

RAY20920M 2024-06-11 21:26 450


完整标题:无血无泪[第100集][中文字幕].The.Two.Sisters.S01.2024.1080p.Viu.WEB-DL.H264.AAC-ZeroTV 0.64GB




◎标  题 无血无泪
◎译  名 Without Blood or Tears
◎片  名 피도 눈물도 없이
◎年  代 2024
◎产  地 韩国
◎类  别 剧情 / 家庭
◎语  言 韩语
◎IMDb链接 https://www.imdb.com/title//
◎豆瓣链接 https://movie.douban.com/subject/36663664/
◎演  员 李素妍 So-yeon Lee
      河延珠 Yeon-joo Ha
      吴彰锡 Chang-suk Oh
      张世铉 Se-hyun Jang
      郑灿 Chan Jung
      刘泰雄 Tae-Woong Yoo
      金艺玲 Ye-ryeong Kim
      杨慧珍 Hyejin Yang
      郑惠先 Hye-sun Jung
      郑秀英 Soo-young Jeong
      朴信友 Shin-woo Park
      玄哲浩 Cheol-ho Hyeon
      李应敬 Eung-kyung Lee
      朴荷娜 Park Ha-na

◎简  介
    该晚间日日剧讲述了小时候因父母离婚而分开的姐妹在命运的漩涡中以儿媳和婆婆的身份再次相遇,在欲望和矛盾中走向破裂的悲剧故事。

##### MediaInfo ######
General
Unique ID : 286841645636598346919864678130091056985 (0xD7CBB103B627EB25D5A131DE175C5F59)
Complete name : The.Two.Sisters.S01E100.2024.1080p.Viu.WEB-DL.H264.AAC-ZeroTV.mkv
Duration : 31 min 29 s
Overall bit rate mode : Variable
Overall bit rate : 2 887 kb/s

Video
ID : 1
Format : AVC
Format/Info : Advanced Video Codec
Format profile : High@L4.1
Format settings : CABAC / 4 Ref Frames
Format settings, CABAC : Yes
Format settings, Reference frames : 4 frames
Codec ID : V_MPEG4/ISO/AVC
Duration : 31 min 29 s
Bit rate mode : Variable
Bit rate : 2 789 kb/s
Maximum bit rate : 4 500 kb/s
Width : 1 920 pixels
Height : 1 080 pixels
Display aspect ratio : 16:9
Frame rate mode : Constant
Frame rate : 29.970 (30000/1001) FPS
Original frame rate : 29.970 (29970/1000) FPS
Color space : YUV
Chroma subsampling : 4:2:0
Bit depth : 8 bits
Scan type : Progressive
Bits/(Pixel*Frame) : 0.045
Stream size : 628 MiB (97%)
Writing library : VOLO1.4.1
Language : Korean
Default : Yes
Forced : No

Audio
ID : 2
Format : AAC LC
Format/Info : Advanced Audio Codec Low Complexity
Codec ID : A_AAC-2
Duration : 31 min 29 s
Bit rate : 96.0 kb/s
Channel(s) : 2 channels
Channel layout : L R
Sampling rate : 48.0 kHz
Frame rate : 46.875 FPS (1024 SPF)
Compression mode : Lossy
Delay relative to video : -42 ms
Stream size : 21.6 MiB (3%)
Language : Korean
Default : Yes
Forced : No

Text
ID : 3
Format : UTF-8
Codec ID : S_TEXT/UTF8
Codec ID/Info : UTF-8 Plain Text
Duration : 31 min 18 s
Bit rate : 56 b/s
Frame rate : 0.225 FPS
Count of elements : 422
Stream size : 13.0 KiB (0%)
Title : Chinese Simplified
Language : Chinese
Default : Yes
Forced : No


点击图片可查看大图

软字幕无法在截图上展现,HDR版本/杜比视界版本截图会出现颜色异常,请使用支持的设备播放!

部分资源为软字幕,移动端推荐播放器:MxPlayer,nPlayer,infuse ,其他播放器请自行尝试。

部分资源为软字幕,电脑端推荐播放器:PotPlayer,完美解码,KMPLAYER,其他播放器请自行尝试。

下载端推荐纯BT下载软件:qBittorrent,Bitcomet,uTorrent ,其他下载软件请自行尝试。不支持吸血迅雷。

上传的附件:
最新回复 (0)