2024 大陆 动作 WEB-1080P 绝世战魂[第17集][国语配音/中文字幕].Jue.Shi.Zhan.Hun.S01.2024.1080p.WEB-DL.H264.AAC-ZeroTV 0.19GB

RAY20920M 2024-06-11 21:27 520


完整标题:绝世战魂[第17集][国语配音/中文字幕].Jue.Shi.Zhan.Hun.S01.2024.1080p.WEB-DL.H264.AAC-ZeroTV 0.19GB




◎标  题 绝世战魂
◎译  名 绝世战魂 3D动画版
◎年  代 2024
◎产  地 中国大陆
◎类  别 动作 / 动画 / 奇幻
◎语  言 汉语普通话
◎IMDb链接 https://www.imdb.com/title//
◎豆瓣链接 https://movie.douban.com/subject/36733080/
◎导  演 陈凌超 Lingchao Chen
◎编  剧 陈凌超 Lingchao Chen
◎演  员 曹云图 Yuntu Cao
      小连杀 Jing Xu
      幽舞越山 Youwu Zhang
      李轻扬 Qingyang Li
      关帅 Shuai Guan
      任景行 Alex Ren
      张恩泽 Enze Zhang
      林帽帽 Fanying Lin
      柳真颜 Zhenyan Liu
      王宁 Ning Wang
      黄玮
      崔郅昊
      乔木心 Muxin Qiao
      张远韬 Yuantao Zhang

◎简  介
    四大宗门之首的玄灵宗,多年来第一次来临水城选拔弟子,方秦两家围绕这一个将决定二者命运的契机,展开明争暗斗。最终,秦南依靠潜心修炼、绝佳天资以及奇遇所得的战神之魂,在使者萧轻雪的公正判罚下,成功扭转颓势战胜方家。进入宗门后,秦南因卷入萧轻雪被逼婚一事,惹来宗主之子欧阳君的仇视。为了不断变强,报答萧轻雪的知遇之恩,秦南屡破强敌,连夺万象大比、外门大比第一、与四大宗门天才共闯武缘阁,并获得搅动大陆的惊天秘密,与冷锋约战生死殿、破北海家围困临水城之难,探索九字真言塔,誓与宗门恶势力战斗到底。

##### MediaInfo ######
General
Complete name : 绝世战魂.Jue.Shi.Zhan.Hun.S01E17.2024.1080p.WEB-DL.H264.AAC-ZeroTV.mp4
Duration : 9 min 28 s
Overall bit rate mode : Variable
Overall bit rate : 2 848 kb/s

Video
ID : 1
Format : AVC
Format/Info : Advanced Video Codec
Format profile : High@L4
Format settings : CABAC / 3 Ref Frames
Format settings, CABAC : Yes
Format settings, Reference frames : 3 frames
Codec ID : avc1
Codec ID/Info : Advanced Video Coding
Duration : 9 min 28 s
Bit rate : 2 653 kb/s
Width : 1 920 pixels
Height : 1 080 pixels
Display aspect ratio : 16:9
Frame rate mode : Constant
Frame rate : 24.000 FPS
Color space : YUV
Chroma subsampling : 4:2:0
Bit depth : 8 bits
Scan type : Progressive
Bits/(Pixel*Frame) : 0.053
Stream size : 180 MiB (93%)
Color range : Limited
Color primaries : BT.709
Transfer characteristics : BT.709
Matrix coefficients : BT.709
Codec configuration box : avcC

Audio
ID : 2
Format : AAC LC
Format/Info : Advanced Audio Codec Low Complexity
Codec ID : mp4a-40-2
Duration : 9 min 28 s
Bit rate mode : Variable
Bit rate : 192 kb/s
Maximum bit rate : 199 kb/s
Channel(s) : 2 channels
Channel layout : L R
Sampling rate : 44.1 kHz
Frame rate : 43.066 FPS (1024 SPF)
Compression mode : Lossy
Stream size : 12.9 MiB (7%)
Default : Yes
Alternate group : 1


点击图片可查看大图

软字幕无法在截图上展现,HDR版本/杜比视界版本截图会出现颜色异常,请使用支持的设备播放!

部分资源为软字幕,移动端推荐播放器:MxPlayer,nPlayer,infuse ,其他播放器请自行尝试。

部分资源为软字幕,电脑端推荐播放器:PotPlayer,完美解码,KMPLAYER,其他播放器请自行尝试。

下载端推荐纯BT下载软件:qBittorrent,Bitcomet,uTorrent ,其他下载软件请自行尝试。不支持吸血迅雷。

上传的附件:
最新回复 (0)