2024 韩国 剧情 WEB-1080P 玩家2:玩家的战争[第03集][中文字幕].The.Player.2.Master.of.Swindlers.S01.2024.1080p.WEB-DL.H264.AAC-ZeroTV 3.29GB

Katt2092T 2024-06-11 21:27 7576


完整标题:玩家2:玩家的战争[第03集][中文字幕].The.Player.2.Master.of.Swindlers.S01.2024.1080p.WEB-DL.H264.AAC-ZeroTV 3.29GB




◎标  题 玩家2:玩家的战争
◎译  名 Player 2: Master of Swindlers
◎片  名 플레이어2: 꾼들의 전쟁
◎年  代 2024
◎产  地 韩国
◎类  别 剧情 / 动作 / 犯罪
◎语  言 韩语
◎IMDb链接 https://www.imdb.com/title//
◎豆瓣链接 https://movie.douban.com/subject/35991752/
◎导  演 苏在贤 So Jae-Hyun
◎演  员 宋承宪 Seung-heon Song
      吴涟序 Yeon-seo Oh
      李时言 Si-eon Lee
      太元硕 Tae Won-suk
      张圭悧 Gyuri Jang
      洪宗玄 Jong-hyun Hong
      河道权 Ha Do Kwon

##### MediaInfo ######
General
Unique ID : 117472131367824532821931494279046483159 (0x58604F3E399AD576972522449513CCD7)
Complete name : The.Player.2.Master.of.Swindlers.S01E03.2024.1080p.WEB-DL.H264.AAC-ZeroTV.mkv
Duration : 1 h 0 min
Overall bit rate : 7 743 kb/s

Video
ID : 1
Format : AVC
Format/Info : Advanced Video Codec
Format profile : High@L4.1
Format settings : CABAC / 1 Ref Frames
Format settings, CABAC : Yes
Format settings, Reference frames : 1 frame
Format settings, GOP : M=1, N=60
Codec ID : V_MPEG4/ISO/AVC
Duration : 1 h 0 min
Bit rate mode : Constant
Bit rate : 7 615 kb/s
Nominal bit rate : 8 000 kb/s
Width : 1 920 pixels
Height : 1 080 pixels
Display aspect ratio : 16:9
Frame rate mode : Constant
Frame rate : 29.970 (30000/1001) FPS
Color space : YUV
Chroma subsampling : 4:2:0
Bit depth : 8 bits
Scan type : Progressive
Bits/(Pixel*Frame) : 0.123
Stream size : 3.23 GiB (98%)
Language : English
Default : Yes
Forced : No

Audio
ID : 2
Format : AAC LC
Format/Info : Advanced Audio Codec Low Complexity
Codec ID : A_AAC-2
Duration : 1 h 0 min
Bit rate : 125 kb/s
Channel(s) : 2 channels
Channel layout : L R
Sampling rate : 48.0 kHz
Frame rate : 46.875 FPS (1024 SPF)
Compression mode : Lossy
Stream size : 54.5 MiB (2%)
Title : 韩语
Language : Korean
Default : Yes
Forced : No

Text #1
ID : 3
Format : UTF-8
Codec ID : S_TEXT/UTF8
Codec ID/Info : UTF-8 Plain Text
Duration : 1 h 0 min
Bit rate : 48 b/s
Frame rate : 0.238 FPS
Count of elements : 864
Stream size : 21.7 KiB (0%)
Title : 简体中文
Language : Chinese
Default : No
Forced : No

Text #2
ID : 4
Format : UTF-8
Codec ID : S_TEXT/UTF8
Codec ID/Info : UTF-8 Plain Text
Duration : 1 h 0 min
Bit rate : 48 b/s
Frame rate : 0.238 FPS
Count of elements : 864
Stream size : 21.7 KiB (0%)
Title : 繁体中文
Language : Chinese
Default : No
Forced : No


点击图片可查看大图

软字幕无法在截图上展现,HDR版本/杜比视界版本截图会出现颜色异常,请使用支持的设备播放!

部分资源为软字幕,移动端推荐播放器:MxPlayer,nPlayer,infuse ,其他播放器请自行尝试。

部分资源为软字幕,电脑端推荐播放器:PotPlayer,完美解码,KMPLAYER,其他播放器请自行尝试。

下载端推荐纯BT下载软件:qBittorrent,Bitcomet,uTorrent ,其他下载软件请自行尝试。不支持吸血迅雷。

上传的附件:
最新回复 (0)