2013 韩国 真人秀 WEB-1080P 超人回来了[第529集][中文字幕].The.Return.of.Superman.S01.2013.1080p.Viu.WEB-DL.H264.AAC-ZeroTV 1.85GB

RAY20920M 2024-06-11 21:28 442


完整标题:超人回来了[第529集][中文字幕].The.Return.of.Superman.S01.2013.1080p.Viu.WEB-DL.H264.AAC-ZeroTV 1.85GB




◎标  题 超人回来了
◎译  名 The Return of Superman
◎片  名 슈퍼맨이 돌아왔다
◎年  代 2013
◎产  地 韩国
◎类  别 真人秀
◎语  言 韩语
◎IMDb评分 8.6/10 (127人评价)
◎IMDb链接 https://www.imdb.com/title/tt5129382/
◎豆瓣评分 9.4/10 (11764人评价)
◎豆瓣链接 https://movie.douban.com/subject/25814991/
◎演  员 严泰雄 Tae-woong Eom
      宋民国 Song Minguk
      张铉诚 Hyeong-seong Jang
      宋一国 Il-guk Song
      李善雄 Tablo
      秋成勋 Yoshihiro Akiyama
      威廉·汉明顿 William Hammington
      本特利·汉明顿 Bentley Hammington
      李夏露 Haru
      高志溶 Ji-yong Ko
      李辉宰 Hui-jae Lee
      萨姆·汉明顿 Sam Hammington
      朴柱昊 Joo-ho Park
      姜熙建 Hee-gun Kang
      尹相铉 Sang-hyun Yun
      藤田小百合 Fujita Sayuri
      申贤俊 Hyeon-jun Shin
      金东炫 Dong Hyun Kim
      李同国 Lee Dong-Gook
      李必模 Pill-Mo Lee

◎简  介
    kbs最新推出的亲子综艺(快乐星期天),内容为父亲带着孩子,在没有妈妈的情况下度过48小时现4位父子。   参演艺人:   为秋成勋与女儿   tablo与女儿   张铉诚的儿子们   李辉才的双胞胎儿子   收视率分布:   131103 KBS2 超人回来了   7.2%(首播收视)   131110 KBS2 超人回来了   7.9%(+0.7%)   131117 KBS2 超人回来了 8.4%(+0.5%)   131124 KBS2 超人回来了  6.8%(-1.6%)   131201 KBS2 超人回来了  7.4%(+0.6%)   131208 KBS2 超人回来了  7.5%(+0.1%)   131215 KBS2 超人回来了  8.8%(+1.3%)   131222 KBS2超人回来了 9.1 (+0.3%)   131229 KBS2 超人回来了  8.2%(-0.9%)   140105 KBS2 超人回来了 8.5%(+0.3%)   140112 KBS2 超人回来了  8.2%(-0.3%)

##### MediaInfo ######
General
Unique ID : 21497730835547163149044192938956651023 (0x102C4FF68398038CD1C75BE7D42B7A0F)
Complete name : The.Return.of.Superman.S01E529.2013.1080p.Viu.WEB-DL.H264.AAC-ZeroTV.mkv
Duration : 1 h 5 min
Overall bit rate mode : Variable
Overall bit rate : 4 029 kb/s

Video
ID : 1
Format : AVC
Format/Info : Advanced Video Codec
Format profile : High@L4.1
Format settings : CABAC / 4 Ref Frames
Format settings, CABAC : Yes
Format settings, Reference frames : 4 frames
Codec ID : V_MPEG4/ISO/AVC
Duration : 1 h 5 min
Bit rate mode : Variable
Bit rate : 3 930 kb/s
Maximum bit rate : 4 500 kb/s
Width : 1 920 pixels
Height : 1 080 pixels
Display aspect ratio : 16:9
Frame rate mode : Constant
Frame rate : 29.970 (30000/1001) FPS
Original frame rate : 29.970 (29970/1000) FPS
Color space : YUV
Chroma subsampling : 4:2:0
Bit depth : 8 bits
Scan type : Progressive
Bits/(Pixel*Frame) : 0.063
Stream size : 1.81 GiB (98%)
Writing library : VOLO1.4.1
Language : Korean
Default : Yes
Forced : No

Audio
ID : 2
Format : AAC LC
Format/Info : Advanced Audio Codec Low Complexity
Codec ID : A_AAC-2
Duration : 1 h 5 min
Bit rate : 96.0 kb/s
Channel(s) : 2 channels
Channel layout : L R
Sampling rate : 48.0 kHz
Frame rate : 46.875 FPS (1024 SPF)
Compression mode : Lossy
Delay relative to video : -42 ms
Stream size : 45.2 MiB (2%)
Language : Korean
Default : Yes
Forced : No

Text
ID : 3
Format : UTF-8
Codec ID : S_TEXT/UTF8
Codec ID/Info : UTF-8 Plain Text
Duration : 1 h 5 min
Bit rate : 77 b/s
Frame rate : 0.397 FPS
Count of elements : 1551
Stream size : 36.9 KiB (0%)
Title : Chinese Simplified
Language : Chinese
Default : Yes
Forced : No


点击图片可查看大图

软字幕无法在截图上展现,HDR版本/杜比视界版本截图会出现颜色异常,请使用支持的设备播放!

部分资源为软字幕,移动端推荐播放器:MxPlayer,nPlayer,infuse ,其他播放器请自行尝试。

部分资源为软字幕,电脑端推荐播放器:PotPlayer,完美解码,KMPLAYER,其他播放器请自行尝试。

下载端推荐纯BT下载软件:qBittorrent,Bitcomet,uTorrent ,其他下载软件请自行尝试。不支持吸血迅雷。

上传的附件:
最新回复 (0)