2022 大陆 动作 WEB-1080P 万界独尊 第二季[第192集][国语配音/中文字幕].Ten.Thousand.Worlds.S02.2022.1080p.WEB-DL.H265.AAC-ZeroTV 0.17GB

RAY20920M 2024-06-11 21:28 336


完整标题:万界独尊 第二季[第192集][国语配音/中文字幕].Ten.Thousand.Worlds.S02.2022.1080p.WEB-DL.H265.AAC-ZeroTV 0.17GB




◎标  题 万界独尊 第二季
◎译  名 Ten Thousand Worlds
◎年  代 2022
◎产  地 中国大陆
◎类  别 动作 / 动画 / 奇幻 / 冒险 / 古装
◎语  言 汉语普通话
◎IMDb链接 https://www.imdb.com/title//
◎豆瓣链接 https://movie.douban.com/subject/35970256/
◎编  剧 发飙的蜗牛 Tai Wang
◎演  员 王大伟 Dawei Wang
      张妮 Ni Zhang
      胡亚捷 Yajie Hu
      kinsen kinsen
      宋媛媛
      蘭若镝 Zhang Ruo Di
      忻子约

◎简  介
    魅灵侵袭,古神大陆的安宁将如何守护?   本源之力,所得的生命之水遭八方觊觎……   亲情与道义,安有两全抉择?   被构陷结魔,该如何挣脱囹圄?   林枫能否战胜魔尊分身,重塑魔尊封印,守护古神大陆安宁?

##### MediaInfo ######
General
Complete name : 万界独尊.Ten.Thousand.Worlds.S02E192.2022.1080p.WEB-DL.H265.AAC-ZeroTV.mp4
Duration : 9 min 49 s
Overall bit rate mode : Variable
Overall bit rate : 2 462 kb/s

Video
ID : 1
Format : HEVC
Format/Info : High Efficiency Video Coding
Format profile : Main@L4@Main
Codec ID : hev1
Codec ID/Info : High Efficiency Video Coding
Duration : 9 min 49 s
Source duration : 9 min 49 s
Bit rate : 2 362 kb/s
Width : 1 920 pixels
Height : 1 080 pixels
Display aspect ratio : 16:9
Frame rate mode : Variable
Frame rate : 25.000 FPS
Minimum frame rate : 24.993 FPS
Maximum frame rate : 25.007 FPS
Color space : YUV
Chroma subsampling : 4:2:0
Bit depth : 8 bits
Bits/(Pixel*Frame) : 0.046
Stream size : 166 MiB (96%)
Source stream size : 166 MiB (96%)
Codec configuration box : hvcC

Audio
ID : 2
Format : AAC LC
Format/Info : Advanced Audio Codec Low Complexity
Codec ID : mp4a-40-2
Duration : 9 min 49 s
Bit rate mode : Variable
Bit rate : 93.4 kb/s
Maximum bit rate : 97.0 kb/s
Channel(s) : 2 channels
Channel layout : L R
Sampling rate : 48.0 kHz
Frame rate : 46.875 FPS (1024 SPF)
Compression mode : Lossy
Stream size : 6.56 MiB (4%)
Default : Yes
Alternate group : 1


点击图片可查看大图

软字幕无法在截图上展现,HDR版本/杜比视界版本截图会出现颜色异常,请使用支持的设备播放!

部分资源为软字幕,移动端推荐播放器:MxPlayer,nPlayer,infuse ,其他播放器请自行尝试。

部分资源为软字幕,电脑端推荐播放器:PotPlayer,完美解码,KMPLAYER,其他播放器请自行尝试。

下载端推荐纯BT下载软件:qBittorrent,Bitcomet,uTorrent ,其他下载软件请自行尝试。不支持吸血迅雷。

上传的附件:
最新回复 (0)