2022 大陆 动作 WEB-4K 万界独尊 第二季[第192集][国语配音/中文字幕].Ten.Thousand.Worlds.S02.2022.2160p.WEB-DL.H265.DDP2.0-ZeroTV 0.40GB

MAY20919R 2024-06-11 21:28 529


完整标题:万界独尊 第二季[第192集][国语配音/中文字幕].Ten.Thousand.Worlds.S02.2022.2160p.WEB-DL.H265.DDP2.0-ZeroTV 0.40GB




◎标  题 万界独尊 第二季
◎译  名 Ten Thousand Worlds
◎年  代 2022
◎产  地 中国大陆
◎类  别 动作 / 动画 / 奇幻 / 冒险 / 古装
◎语  言 汉语普通话
◎IMDb链接 https://www.imdb.com/title//
◎豆瓣链接 https://movie.douban.com/subject/35970256/
◎编  剧 发飙的蜗牛 Tai Wang
◎演  员 王大伟 Dawei Wang
      张妮 Ni Zhang
      胡亚捷 Yajie Hu
      kinsen kinsen
      宋媛媛
      蘭若镝 Zhang Ruo Di
      忻子约

◎简  介
    魅灵侵袭,古神大陆的安宁将如何守护?   本源之力,所得的生命之水遭八方觊觎……   亲情与道义,安有两全抉择?   被构陷结魔,该如何挣脱囹圄?   林枫能否战胜魔尊分身,重塑魔尊封印,守护古神大陆安宁?

##### MediaInfo ######
General
Unique ID : 291578574441474680794282298986733339294 (0xDB5BFDA2D4CD9B0FA75E54228FD9829E)
Complete name : 万界独尊.Ten.Thousand.Worlds.S02E192.2022.2160p.WEB-DL.H265.DDP2.0-ZeroTV.mkv
Duration : 9 min 49 s
Overall bit rate : 5 807 kb/s

Video
ID : 1
Format : HEVC
Format/Info : High Efficiency Video Coding
Format profile : Main@L5@Main
Codec ID : V_MPEGH/ISO/HEVC
Duration : 9 min 49 s
Bit rate : 5 425 kb/s
Width : 3 840 pixels
Height : 2 160 pixels
Display aspect ratio : 16:9
Frame rate mode : Constant
Frame rate : 25.000 FPS
Color space : YUV
Chroma subsampling : 4:2:0
Bit depth : 8 bits
Bits/(Pixel*Frame) : 0.026
Stream size : 381 MiB (93%)
Writing library : Tencent-V265-1.6.9.1-p1k184g16lh64f4ra1.
Default : Yes
Forced : No
Color range : Limited

Audio #1
ID : 2
Format : E-AC-3
Format/Info : Enhanced AC-3
Commercial name : Dolby Digital Plus
Codec ID : A_EAC3
Duration : 9 min 49 s
Bit rate mode : Constant
Bit rate : 256 kb/s
Channel(s) : 2 channels
Channel layout : L R
Sampling rate : 48.0 kHz
Frame rate : 31.250 FPS (1536 SPF)
Compression mode : Lossy
Delay relative to video : -42 ms
Stream size : 18.0 MiB (4%)
Title : Mandarin
Language : Chinese
Service kind : Complete Main
Default : Yes
Forced : No

Audio #2
ID : 3
Format : AAC LC
Format/Info : Advanced Audio Codec Low Complexity
Codec ID : A_AAC-2
Duration : 9 min 49 s
Bit rate : 125 kb/s
Channel(s) : 2 channels
Channel layout : L R
Sampling rate : 48.0 kHz
Frame rate : 46.875 FPS (1024 SPF)
Compression mode : Lossy
Delay relative to video : -42 ms
Stream size : 8.81 MiB (2%)
Title : Mandarin
Language : Chinese
Default : No
Forced : No


点击图片可查看大图

软字幕无法在截图上展现,HDR版本/杜比视界版本截图会出现颜色异常,请使用支持的设备播放!

部分资源为软字幕,移动端推荐播放器:MxPlayer,nPlayer,infuse ,其他播放器请自行尝试。

部分资源为软字幕,电脑端推荐播放器:PotPlayer,完美解码,KMPLAYER,其他播放器请自行尝试。

下载端推荐纯BT下载软件:qBittorrent,Bitcomet,uTorrent ,其他下载软件请自行尝试。不支持吸血迅雷。

上传的附件:
最新回复 (0)