2023 大陆 剧情 WEB-1080P 吞噬星空 第4季[第38集][国语配音/中文字幕].Swallowed.Star.S04.2023.1080p.WEB-DL.H265.AAC-ZeroTV 0.40GB

RAY20920M 2024-06-11 21:28 3653


完整标题:吞噬星空 第4季[第38集][国语配音/中文字幕].Swallowed.Star.S04.2023.1080p.WEB-DL.H265.AAC-ZeroTV 0.40GB




◎标  题 吞噬星空 第4季
◎译  名 吞噬星空 第86-137集 / Swallowed Star Season 4
◎年  代 2023
◎产  地 中国大陆
◎类  别 剧情 / 科幻 / 动画
◎语  言 汉语普通话
◎IMDb链接 https://www.imdb.com/title//
◎豆瓣链接 https://movie.douban.com/subject/36309129/
◎导  演 沈乐平 Leping Shen
◎编  剧 沈乐平 Leping Shen
◎演  员 赵乾景 Qianjing Zhao
      吴磊 Lei Wu
      张欣 Xin Zhang
      朱亚文 Yawen Zhu

◎简  介
    感谢长期以来大家对《吞噬星空》动画的支持,《吞噬星空》第三季将于3月8日收官。守护之路仍在继续,对抗怪兽保卫我们的家园,敬请期待罗峰接下来的种种冒险。

##### MediaInfo ######
General
Complete name : 吞噬星空.Swallowed.Star.S04E38.2023.1080p.WEB-DL.H265.AAC-ZeroTV.mp4
Duration : 21 min 31 s
Overall bit rate mode : Variable
Overall bit rate : 2 655 kb/s

Video
ID : 1
Format : HEVC
Format/Info : High Efficiency Video Coding
Format profile : Main@L4@Main
Codec ID : hev1
Codec ID/Info : High Efficiency Video Coding
Duration : 21 min 31 s
Source duration : 21 min 31 s
Bit rate : 2 551 kb/s
Width : 1 920 pixels
Height : 1 080 pixels
Display aspect ratio : 16:9
Frame rate mode : Variable
Frame rate : 30.000 FPS
Minimum frame rate : 29.990 FPS
Maximum frame rate : 30.010 FPS
Color space : YUV
Chroma subsampling : 4:2:0
Bit depth : 8 bits
Bits/(Pixel*Frame) : 0.041
Stream size : 393 MiB (96%)
Source stream size : 393 MiB (96%)
Color range : Limited
Color primaries : BT.709
Transfer characteristics : BT.709
Matrix coefficients : BT.709
Codec configuration box : hvcC

Audio
ID : 2
Format : AAC LC
Format/Info : Advanced Audio Codec Low Complexity
Codec ID : mp4a-40-2
Duration : 21 min 31 s
Bit rate mode : Variable
Bit rate : 93.4 kb/s
Maximum bit rate : 97.0 kb/s
Channel(s) : 2 channels
Channel layout : L R
Sampling rate : 48.0 kHz
Frame rate : 46.875 FPS (1024 SPF)
Compression mode : Lossy
Stream size : 14.4 MiB (4%)
Default : Yes
Alternate group : 1


点击图片可查看大图

软字幕无法在截图上展现,HDR版本/杜比视界版本截图会出现颜色异常,请使用支持的设备播放!

部分资源为软字幕,移动端推荐播放器:MxPlayer,nPlayer,infuse ,其他播放器请自行尝试。

部分资源为软字幕,电脑端推荐播放器:PotPlayer,完美解码,KMPLAYER,其他播放器请自行尝试。

下载端推荐纯BT下载软件:qBittorrent,Bitcomet,uTorrent ,其他下载软件请自行尝试。不支持吸血迅雷。

上传的附件:
最新回复 (0)