2019 大陆 动画 WEB-4K 灵剑尊[第495集][国语配音/中文字幕].Spirit.Sword.Sovereign.S01.2019.2160p.WEB-DL.H265.DDP2.0-ZeroTV 0.43GB

MAY20919R 2024-06-11 21:29 583


完整标题:灵剑尊[第495集][国语配音/中文字幕].Spirit.Sword.Sovereign.S01.2019.2160p.WEB-DL.H265.DDP2.0-ZeroTV 0.43GB




◎标  题 灵剑尊
◎译  名 Spirit Sword Sovereign
◎年  代 2019
◎产  地 中国大陆
◎类  别 动画 / 奇幻
◎语  言 汉语普通话
◎IMDb链接 https://www.imdb.com/title//
◎豆瓣评分 5.3/10 (1181人评价)
◎豆瓣链接 https://movie.douban.com/subject/30437994/
◎演  员 关帅 Shuai Guan
      黄骥 Ji Huang
      季骜杰 Ji Aojie
      张妮 Ni Zhang
      钟巍 Wei Zhong

◎简  介
    《灵剑尊》是由索以文化制作的3D动画。根据同名小说《灵剑尊》和漫画《灵剑尊》改编。该动画讲述了落魄少年楚行云立志要改变现状奋发图强创造一片新天地的故事   大梦一场,落魄少年立志要改变现状奋发图强创造一片新天地。珍奇异宝,功法武决,遗失的强者洞府,在这个天才辈出,充满挑战和机缘的时代,且看落魄少主如何闯荡大陆、遭奇遇,成为叱咤风云的至尊天帝。以前的仇人,现在,绝不会放过!梦中的遗憾,现在,一定要弥补!待到灵剑长啸之时,天地三界,我为至尊!

##### MediaInfo ######
General
Unique ID : 165911076490618238653970163730023575501 (0x7CD14F9FC909D2E2EDFF96A862D9EFCD)
Complete name : 灵剑尊.Spirit.Sword.Sovereign.S01E495.2019.2160p.WEB-DL.H265.DDP2.0-ZeroTV.mkv
Duration : 11 min 5 s
Overall bit rate : 5 521 kb/s

Video
ID : 1
Format : HEVC
Format/Info : High Efficiency Video Coding
Format profile : Main@L5@Main
Codec ID : V_MPEGH/ISO/HEVC
Duration : 11 min 5 s
Bit rate : 5 138 kb/s
Width : 3 840 pixels
Height : 2 160 pixels
Display aspect ratio : 16:9
Frame rate mode : Constant
Frame rate : 25.000 FPS
Color space : YUV
Chroma subsampling : 4:2:0
Bit depth : 8 bits
Bits/(Pixel*Frame) : 0.025
Stream size : 408 MiB (93%)
Writing library : Tencent-V265-1.6.9.1-p1k184g16lh64f4ra1.
Default : Yes
Forced : No
Color range : Limited
Color primaries : BT.709
Transfer characteristics : BT.709
Matrix coefficients : BT.709

Audio #1
ID : 2
Format : E-AC-3
Format/Info : Enhanced AC-3
Commercial name : Dolby Digital Plus
Codec ID : A_EAC3
Duration : 11 min 5 s
Bit rate mode : Constant
Bit rate : 256 kb/s
Channel(s) : 2 channels
Channel layout : L R
Sampling rate : 48.0 kHz
Frame rate : 31.250 FPS (1536 SPF)
Compression mode : Lossy
Delay relative to video : -42 ms
Stream size : 20.3 MiB (5%)
Title : Mandarin
Language : Chinese
Service kind : Complete Main
Default : Yes
Forced : No

Audio #2
ID : 3
Format : AAC LC
Format/Info : Advanced Audio Codec Low Complexity
Codec ID : A_AAC-2
Duration : 11 min 5 s
Bit rate : 125 kb/s
Channel(s) : 2 channels
Channel layout : L R
Sampling rate : 48.0 kHz
Frame rate : 46.875 FPS (1024 SPF)
Compression mode : Lossy
Delay relative to video : -42 ms
Stream size : 9.94 MiB (2%)
Title : Mandarin
Language : Chinese
Default : No
Forced : No


点击图片可查看大图

软字幕无法在截图上展现,HDR版本/杜比视界版本截图会出现颜色异常,请使用支持的设备播放!

部分资源为软字幕,移动端推荐播放器:MxPlayer,nPlayer,infuse ,其他播放器请自行尝试。

部分资源为软字幕,电脑端推荐播放器:PotPlayer,完美解码,KMPLAYER,其他播放器请自行尝试。

下载端推荐纯BT下载软件:qBittorrent,Bitcomet,uTorrent ,其他下载软件请自行尝试。不支持吸血迅雷。

上传的附件:
最新回复 (0)