2023 大陆 动作 WEB-1080P 炼气十万年[第139集][国语配音/中文字幕].2023.1080p.WEB-DL.H265.AAC-ZeroTV 0.20GB

Katt2092T 2024-06-11 21:29 586


完整标题:炼气十万年[第139集][国语配音/中文字幕].2023.1080p.WEB-DL.H265.AAC-ZeroTV 0.20GB




◎标  题 炼气十万年
◎译  名 One Hundred Thousand Years of Qi Refining
◎年  代 2023
◎产  地 中国大陆
◎类  别 动作 / 动画 / 奇幻 / 古装
◎语  言 汉语普通话
◎IMDb评分 8.5/10 (56人评价)
◎IMDb链接 https://www.imdb.com/title/tt28210907/
◎豆瓣评分 7.0/10 (1681人评价)
◎豆瓣链接 https://movie.douban.com/subject/36244363/
◎演  员 袁铭喆 Mingzhe Yuan
      朱蓉蓉 Rongrong Zhu
      孙睿扬 Ruiyang Sun
      王曼诗
      周侗 Dong Zhou
      夏觅尘 Michen Xia
      孙熹鹤 Xihe Sun
      张胡子 Zhang Huzi
      李翰林 Hanlin Li
      胡正健 Zhengjian Hu
      凃雄飞

◎简  介
    2023年2月18日起,在腾讯视频全网独播,首更4集,每周二、周六10点更新1集。   十万年前,天岚宗叱咤修真界,宗内弟子皆是天骄,所向披靡。唯独开山弟子徐阳一直是炼气期,为突破修为早日飞升,徐阳闭关万年。谁知出关时,修真界已经没落,天岚宗也只剩三五弟子,眼见就要灭宗,徐阳击退强敌,誓要带领天岚宗重回巅峰!   随着天岚宗势力扩大,徐阳修为停滞的真相也一步步的揭开,万年间,一个贯穿人、魔、仙三界的隐秘也展现在众人面前!究竟是一念成神,还是一念成魔?世界的生死就在徐阳的股掌之间!

##### MediaInfo ######
General
Complete name : 炼气十万年.One.Hundred.Thousand.Years.of.Qi.Refining.S01E139.2023.1080p.WEB-DL.H265.AAC-ZeroTV.mp4
Duration : 12 min 13 s
Overall bit rate mode : Variable
Overall bit rate : 2 335 kb/s

Video
ID : 1
Format : HEVC
Format/Info : High Efficiency Video Coding
Format profile : Main@L4@Main
Codec ID : hev1
Codec ID/Info : High Efficiency Video Coding
Duration : 12 min 13 s
Source duration : 12 min 13 s
Bit rate : 2 235 kb/s
Width : 1 920 pixels
Height : 1 080 pixels
Display aspect ratio : 16:9
Frame rate mode : Variable
Frame rate : 25.000 FPS
Minimum frame rate : 24.993 FPS
Maximum frame rate : 25.007 FPS
Color space : YUV
Chroma subsampling : 4:2:0
Bit depth : 8 bits
Bits/(Pixel*Frame) : 0.043
Stream size : 196 MiB (96%)
Source stream size : 196 MiB (96%)
Codec configuration box : hvcC

Audio
ID : 2
Format : AAC LC
Format/Info : Advanced Audio Codec Low Complexity
Codec ID : mp4a-40-2
Duration : 12 min 13 s
Bit rate mode : Variable
Bit rate : 93.4 kb/s
Maximum bit rate : 97.0 kb/s
Channel(s) : 2 channels
Channel layout : L R
Sampling rate : 48.0 kHz
Frame rate : 46.875 FPS (1024 SPF)
Compression mode : Lossy
Stream size : 8.17 MiB (4%)
Default : Yes
Alternate group : 1


点击图片可查看大图

软字幕无法在截图上展现,HDR版本/杜比视界版本截图会出现颜色异常,请使用支持的设备播放!

部分资源为软字幕,移动端推荐播放器:MxPlayer,nPlayer,infuse ,其他播放器请自行尝试。

部分资源为软字幕,电脑端推荐播放器:PotPlayer,完美解码,KMPLAYER,其他播放器请自行尝试。

下载端推荐纯BT下载软件:qBittorrent,Bitcomet,uTorrent ,其他下载软件请自行尝试。不支持吸血迅雷。

上传的附件:
最新回复 (0)