2024 韩国 喜剧 WEB-1080P 世子消失了[第18集][中文字幕].Missing.Crown.Prince.S01.2024.1080p.Viu.WEB-DL.H264.AAC-ZeroTV 0.84GB

RAY20920M 2024-06-11 21:29 553


完整标题:世子消失了[第18集][中文字幕].Missing.Crown.Prince.S01.2024.1080p.Viu.WEB-DL.H264.AAC-ZeroTV 0.84GB




◎标  题 世子消失了
◎译  名 Missing Crown Prince
◎片  名 세자가 사라졌다
◎年  代 2024
◎产  地 韩国
◎类  别 喜剧 / 古装
◎语  言 韩语
◎IMDb评分 7.3/10 (208人评价)
◎IMDb链接 https://www.imdb.com/title/tt30396939/
◎豆瓣评分 5.1/10 (133人评价)
◎豆瓣链接 https://movie.douban.com/subject/36624368/
◎导  演 金镇满 Jin-man Kim
◎编  剧 金之秀 Ji-Soo Kim
      朴哲 Park Chul
◎演  员 金俊勉 SUHO
      洪艺智 Ye-ji Hong
      明世彬 Se-bin Myeong
      金周宪 Joo-Heon Kim
      金旻奎 Min-kyu Kim
      全镇吾 Jeon Jin-oh
      车光洙 Kwang-soo Cha
      金瑟镇 Kim Seol-jin
      刘世礼 Se-rye Yoo
      金元勋 Kim Wonhoon

◎简  介
    王世子被即将成为世子妃的女人打包袱而发生的两对青春男女的波澜壮阔、大调包、终极逃跑记的朝鲜版浪漫喜剧。

##### MediaInfo ######
General
Unique ID : 243392209105809691934892534234494607487 (0xB71BA266621A42DEE8F95F601EA5207F)
Complete name : Missing.Crown.Prince.S01E18.2024.1080p.Viu.WEB-DL.H264.AAC-ZeroTV.mkv
Duration : 1 h 4 min
Overall bit rate mode : Variable
Overall bit rate : 1 860 kb/s

Video
ID : 1
Format : AVC
Format/Info : Advanced Video Codec
Format profile : High@L4.1
Format settings : CABAC / 4 Ref Frames
Format settings, CABAC : Yes
Format settings, Reference frames : 4 frames
Codec ID : V_MPEG4/ISO/AVC
Duration : 1 h 4 min
Bit rate mode : Variable
Bit rate : 1 761 kb/s
Maximum bit rate : 4 500 kb/s
Width : 1 920 pixels
Height : 1 080 pixels
Display aspect ratio : 16:9
Frame rate mode : Constant
Frame rate : 29.970 (30000/1001) FPS
Original frame rate : 29.970 (29970/1000) FPS
Color space : YUV
Chroma subsampling : 4:2:0
Bit depth : 8 bits
Scan type : Progressive
Bits/(Pixel*Frame) : 0.028
Stream size : 810 MiB (95%)
Writing library : VOLO1.4.1
Language : Kanuri
Default : Yes
Forced : No

Audio
ID : 2
Format : AAC LC
Format/Info : Advanced Audio Codec Low Complexity
Codec ID : A_AAC-2
Duration : 1 h 4 min
Bit rate : 96.0 kb/s
Channel(s) : 2 channels
Channel layout : L R
Sampling rate : 48.0 kHz
Frame rate : 46.875 FPS (1024 SPF)
Compression mode : Lossy
Delay relative to video : -42 ms
Stream size : 44.2 MiB (5%)
Language : Kanuri
Default : Yes
Forced : No

Text #1
ID : 3
Format : UTF-8
Codec ID : S_TEXT/UTF8
Codec ID/Info : UTF-8 Plain Text
Duration : 1 h 3 min
Bit rate : 35 b/s
Frame rate : 0.187 FPS
Count of elements : 706
Stream size : 16.3 KiB (0%)
Title : Chinese Simplified
Language : Chinese
Default : Yes
Forced : No

Text #2
ID : 4
Format : UTF-8
Codec ID : S_TEXT/UTF8
Codec ID/Info : UTF-8 Plain Text
Duration : 1 h 3 min
Bit rate : 35 b/s
Frame rate : 0.190 FPS
Count of elements : 719
Stream size : 16.5 KiB (0%)
Title : Chinese Traditional
Language : Chinese
Default : No
Forced : No


点击图片可查看大图

软字幕无法在截图上展现,HDR版本/杜比视界版本截图会出现颜色异常,请使用支持的设备播放!

部分资源为软字幕,移动端推荐播放器:MxPlayer,nPlayer,infuse ,其他播放器请自行尝试。

部分资源为软字幕,电脑端推荐播放器:PotPlayer,完美解码,KMPLAYER,其他播放器请自行尝试。

下载端推荐纯BT下载软件:qBittorrent,Bitcomet,uTorrent ,其他下载软件请自行尝试。不支持吸血迅雷。

上传的附件:
最新回复 (0)