2017 韩国 真人秀 WEB-1080P 全知干预视角[第302集][中文字幕].Omniscient.Interfering.View.S01.2018.1080p.Viu.WEB-DL.H264.AAC-ZeroTV 2.41GB

MAY20919R 2024-06-11 21:30 609


完整标题:全知干预视角[第302集][中文字幕].Omniscient.Interfering.View.S01.2018.1080p.Viu.WEB-DL.H264.AAC-ZeroTV 2.41GB




◎标  题 全知干预视角
◎片  名 전지적 참견 시점
◎年  代 2017
◎产  地 韩国
◎类  别 真人秀
◎语  言 韩语
◎IMDb链接 https://www.imdb.com/title//
◎豆瓣评分 8.1/10 (2106人评价)
◎豆瓣链接 https://movie.douban.com/subject/30162218/
◎演  员 金生珉
      全炫茂 Jeon Hyeon-moo
      宋恩伊 Eun-ie Song
      梁世亨 Se-hyeong Yang
      洪真英 Jin-young Hong
      柳炳宰 Byung-jae Yoo
      孔祉呼 JiHo
      金美贤 Mimi
      李英子 Yoo-mi Lee
      赵彬 Bin Jo
      Patricia Yiombi

◎简  介
    《全知干预视角 》为韩国MBC于2017年11月29日与30日,试播的全新综艺节目,由李英子、金生珉、全炫茂、宋恩伊、梁世炯、李宰镇、徐珉、梁在雄等人共同主持。   节目主轴为,通过比家人还亲近的经纪人进行检举,暴风公开明星自己都不清楚的模样。当然主持人也会时时刻刻的参与其中进行干预,和之前看到的艺能都不同:从经纪人角度看艺人日常,从专家角度解读行为模式,不能再真的干预观察,不能再逗的全知视角——预计会引发新一轮的新鲜趣味。

##### MediaInfo ######
General
Unique ID : 150351217093772486171934623333298526053 (0x711C97537B97F872F1DBA6FDC398D765)
Complete name : Omniscient.Interfering.View.S01E302.2018.1080p.Viu.WEB-DL.H264.AAC-ZeroTV.mkv
Duration : 1 h 33 min
Overall bit rate mode : Variable
Overall bit rate : 3 698 kb/s

Video
ID : 1
Format : AVC
Format/Info : Advanced Video Codec
Format profile : High@L4.1
Format settings : CABAC / 4 Ref Frames
Format settings, CABAC : Yes
Format settings, Reference frames : 4 frames
Codec ID : V_MPEG4/ISO/AVC
Duration : 1 h 33 min
Bit rate mode : Variable
Bit rate : 3 599 kb/s
Maximum bit rate : 4 500 kb/s
Width : 1 920 pixels
Height : 1 080 pixels
Display aspect ratio : 16:9
Frame rate mode : Constant
Frame rate : 29.970 (30000/1001) FPS
Original frame rate : 29.970 (29970/1000) FPS
Color space : YUV
Chroma subsampling : 4:2:0
Bit depth : 8 bits
Scan type : Progressive
Bits/(Pixel*Frame) : 0.058
Stream size : 2.35 GiB (97%)
Writing library : VOLO1.4.1
Language : Korean
Default : Yes
Forced : No

Audio
ID : 2
Format : AAC LC
Format/Info : Advanced Audio Codec Low Complexity
Codec ID : A_AAC-2
Duration : 1 h 33 min
Bit rate : 96.0 kb/s
Channel(s) : 2 channels
Channel layout : L R
Sampling rate : 48.0 kHz
Frame rate : 46.875 FPS (1024 SPF)
Compression mode : Lossy
Delay relative to video : -42 ms
Stream size : 64.2 MiB (3%)
Language : Korean
Default : Yes
Forced : No

Text #1
ID : 3
Format : UTF-8
Codec ID : S_TEXT/UTF8
Codec ID/Info : UTF-8 Plain Text
Duration : 1 h 33 min
Bit rate : 80 b/s
Frame rate : 0.413 FPS
Count of elements : 2312
Stream size : 55.0 KiB (0%)
Title : Chinese Simplified
Language : Chinese
Default : Yes
Forced : No

Text #2
ID : 4
Format : UTF-8
Codec ID : S_TEXT/UTF8
Codec ID/Info : UTF-8 Plain Text
Duration : 1 h 33 min
Bit rate : 83 b/s
Frame rate : 0.416 FPS
Count of elements : 2332
Stream size : 57.2 KiB (0%)
Title : Chinese Traditional
Language : Chinese
Default : No
Forced : No


点击图片可查看大图

软字幕无法在截图上展现,HDR版本/杜比视界版本截图会出现颜色异常,请使用支持的设备播放!

部分资源为软字幕,移动端推荐播放器:MxPlayer,nPlayer,infuse ,其他播放器请自行尝试。

部分资源为软字幕,电脑端推荐播放器:PotPlayer,完美解码,KMPLAYER,其他播放器请自行尝试。

下载端推荐纯BT下载软件:qBittorrent,Bitcomet,uTorrent ,其他下载软件请自行尝试。不支持吸血迅雷。

上传的附件:
最新回复 (0)