2024 大陆 古装 WEB-1080P 聘猫记[第01-08集][国语音轨/简繁字幕].Pin.Mao.Ji.S01.2024.1080p.KKTV.WEB-DL.x264.AAC-ZeroTV 1.69GB

Katt2092T 2024-06-11 21:30 1400


完整标题:聘猫记[第01-08集][国语音轨/简繁字幕].Pin.Mao.Ji.S01.2024.1080p.KKTV.WEB-DL.x264.AAC-ZeroTV 1.69GB




◎标  题 聘猫记
◎年  代 2024
◎产  地 中国大陆
◎类  别 古装
◎语  言 汉语普通话
◎IMDb链接 https://www.imdb.com/title//
◎豆瓣链接 https://movie.douban.com/subject/36125997/
◎导  演 曹国莉 Kuo-Li Tsao
◎编  剧 许岚枫 Laam-Fung Hui
◎演  员 于轩晨 Xuanchen Yu
      尚璇 Xuan Shang

◎简  介
    《聘猫记》以“萌宠”为亮点,兼顾甜爱和悬疑。本剧故事围绕南宋临安城内“聘猫馆”展开,老板娘张巧儿幼时就与瓦肆中往来的技艺人学了些训猫技巧,自从开了这猫馆,城中有需要狸奴的人家都会去店里按流程聘猫回家。怎料城中一桩大案将老板娘张巧儿牵扯进去,由此她结识临安府的老实小捕头马青山。   随着案情的深入,张巧儿的另一重身份也慢慢揭开,原来她竟是民间有名的“小贼猫”,也是马青山一直追捕的对象。两人在你追我逃间产生情愫,最终两人一同揪出幕后凶手,并守护了临安城。

##### MediaInfo ######
General
Unique ID : 24885110354163808403080303413859291828 (0x12B8B2AAE35EE9169B2C0E1E87C192B4)
Complete name : Pin.Mao.Ji.S01E01.2024.1080p.KKTV.WEB-DL.x264.AAC-ZeroTV.mkv
Duration : 9 min 8 s
Overall bit rate : 3 310 kb/s

Video
ID : 1
Format : AVC
Format/Info : Advanced Video Codec
Format profile : High@L4.1
Format settings : CABAC / 5 Ref Frames
Format settings, CABAC : Yes
Format settings, Reference frames : 5 frames
Codec ID : V_MPEG4/ISO/AVC
Duration : 9 min 8 s
Bit rate : 3 064 kb/s
Width : 1 920 pixels
Height : 1 080 pixels
Display aspect ratio : 16:9
Frame rate mode : Constant
Frame rate : 29.970 (30000/1001) FPS
Color space : YUV
Chroma subsampling : 4:2:0
Bit depth : 8 bits
Scan type : Progressive
Bits/(Pixel*Frame) : 0.049
Stream size : 204 MiB (94%)
Writing library : x264 core 142
Encoding settings : cabac=1 / ref=5 / deblock=1:0:0 / analyse=0x3:0x113 / me=umh / subme=9 / psy=1 / psy_rd=1.00:0.00 / mixed_ref=1 / me_range=32 / chroma_me=1 / trellis=1 / 8x8dct=1 / cqm=0 / deadzone=21,11 / fast_pskip=1 / chroma_qp_offset=-2 / threads=12 / lookahead_threads=1 / sliced_threads=0 / nr=0 / decimate=1 / interlaced=0 / bluray_compat=0 / stitchable=1 / constrained_intra=0 / bframes=3 / b_pyramid=2 / b_adapt=1 / b_bias=0 / direct=3 / weightb=1 / open_gop=0 / weightp=2 / keyint=30 / keyint_min=3 / scenecut=0 / intra_refresh=0 / rc_lookahead=40 / rc=abr / mbtree=1 / bitrate=3064 / ratetol=1.0 / qcomp=0.60 / qpmin=0 / qpmax=69 / qpstep=4 / vbv_maxrate=4596 / vbv_bufsize=6894 / nal_hrd=none / filler=0 / ip_ratio=1.40 / aq=1:1.00
Language : English
Default : Yes
Forced : No

Audio
ID : 2
Format : AAC LC
Format/Info : Advanced Audio Codec Low Complexity
Codec ID : A_AAC-2
Duration : 9 min 8 s
Bit rate : 192 kb/s
Channel(s) : 2 channels
Channel layout : L R
Sampling rate : 44.1 kHz
Frame rate : 43.066 FPS (1024 SPF)
Compression mode : Lossy
Stream size : 12.5 MiB (6%)
Title : Chinese
Language : Chinese
Default : Yes
Forced : No

Text #1
ID : 3
Format : UTF-8
Codec ID : S_TEXT/UTF8
Codec ID/Info : UTF-8 Plain Text
Duration : 6 min 58 s
Bit rate : 39 b/s
Frame rate : 0.313 FPS
Count of elements : 131
Stream size : 2.03 KiB (0%)
Title : Chinese Simplified
Language : Chinese
Default : Yes
Forced : No

Text #2
ID : 4
Format : UTF-8
Codec ID : S_TEXT/UTF8
Codec ID/Info : UTF-8 Plain Text
Duration : 6 min 58 s
Bit rate : 39 b/s
Frame rate : 0.313 FPS
Count of elements : 131
Stream size : 2.03 KiB (0%)
Title : Chinese Traditional
Language : Chinese
Default : No
Forced : No


点击图片可查看大图

软字幕无法在截图上展现,HDR版本/杜比视界版本截图会出现颜色异常,请使用支持的设备播放!

部分资源为软字幕,移动端推荐播放器:MxPlayer,nPlayer,infuse ,其他播放器请自行尝试。

部分资源为软字幕,电脑端推荐播放器:PotPlayer,完美解码,KMPLAYER,其他播放器请自行尝试。

下载端推荐纯BT下载软件:qBittorrent,Bitcomet,uTorrent ,其他下载软件请自行尝试。不支持吸血迅雷。

上传的附件:
最新回复 (0)