2024 韩国 剧情 WEB-1080P 虽然不是英雄[第11-12集][简繁英字幕].The.Atypical.Family.S01.1080p.NF.WEB-DL.DDP.2.0.H.264-BlackTV 5.23GB

MAY20919R 2024-06-11 21:30 872


完整标题:虽然不是英雄[第11-12集][简繁英字幕].The.Atypical.Family.S01.1080p.NF.WEB-DL.DDP.2.0.H.264-BlackTV 5.23GB




◎标  题 虽然不是英雄
◎译  名 The Atypical Family
◎片  名 히어로는 아닙니다만
◎年  代 2024
◎产  地 韩国
◎类  别 剧情 / 爱情 / 奇幻
◎语  言 韩语
◎IMDb评分 7.5/10 (532人评价)
◎IMDb链接 https://www.imdb.com/title/tt32166552/
◎豆瓣评分 7.8/10 (1617人评价)
◎豆瓣链接 https://movie.douban.com/subject/36399691/
◎导  演 赵贤卓 Hyeon-tak Jo
◎编  剧 朱华美 Hwa Mi Joo
◎演  员 张基龙 Jang Ki-yong
      千玗嬉 Woo-hee Chun
      高斗心 Du-shim Ko
      金秀贤 Soo-hyun Kim
      吴万石 Man-seok Oh
      朴昭怡 So-i Park

◎简  介
    该剧讲述了因现代人的疾病而失去超能力的男人,却拯救了命运般相遇的女人的奇幻治愈罗曼史。   千玗嬉饰演在火灾事故现场被一位不知姓名的恩人救起,不放弃对生活和家人的希望,坚强生活的女主角都多海。张基龙饰演因现代人的疾病而失去超能力的男主角。

##### MediaInfo ######
General
Unique ID : 256394082239001481904709584045872233514 (0xC0E3B43CEF149966A16D86533D3FBC2A)
Complete name : The.Atypical.Family.S01E11.Episode.11.1080p.NF.WEB-DL.DDP.2.0.H.264-BlackTV.mkv
Duration : 1 h 10 min
Overall bit rate mode : Variable
Overall bit rate : 5 122 kb/s

Video
ID : 1
Format : AVC
Format/Info : Advanced Video Codec
Format profile : Main@L4
Format settings : CABAC / 3 Ref Frames
Format settings, CABAC : Yes
Format settings, Reference frames : 3 frames
Codec ID : V_MPEG4/ISO/AVC
Duration : 1 h 10 min
Bit rate mode : Variable
Bit rate : 5 000 kb/s
Maximum bit rate : 7 500 kb/s
Width : 1 920 pixels
Height : 1 080 pixels
Display aspect ratio : 16:9
Frame rate mode : Constant
Frame rate : 23.976 (24000/1001) FPS
Color space : YUV
Chroma subsampling : 4:2:0
Bit depth : 8 bits
Scan type : Progressive
Bits/(Pixel*Frame) : 0.101
Stream size : 2.44 GiB (97%)
Writing library : x264 core 148 r2727 7d026e8
Encoding settings : cabac=1 / ref=3 / deblock=1:0:0 / analyse=0x1:0x111 / me=umh / subme=10 / psy=1 / psy_rd=1.00:0.00 / mixed_ref=1 / me_range=24 / chroma_me=1 / trellis=2 / 8x8dct=0 / cqm=0 / deadzone=21,11 / fast_pskip=1 / chroma_qp_offset=-2 / threads=6 / lookahead_threads=1 / sliced_threads=0 / nr=0 / decimate=1 / interlaced=0 / bluray_compat=0 / stitchable=1 / constrained_intra=0 / bframes=2 / b_pyramid=0 / b_adapt=2 / b_bias=0 / direct=3 / weightb=1 / open_gop=0 / weightp=2 / keyint=240 / keyint_min=121 / scenecut=0 / intra_refresh=0 / rc_lookahead=48 / rc=2pass / mbtree=1 / bitrate=5000 / ratetol=1.0 / qcomp=0.50 / qpmin=6 / qpmax=51 / qpstep=4 / cplxblur=20.0 / qblur=0.5 / vbv_maxrate=7500 / vbv_bufsize=10000 / nal_hrd=vbr / filler=0 / ip_ratio=1.40 / aq=1:1.00
Language : Korean
Default : Yes
Forced : No

Audio
ID : 2
Format : E-AC-3
Format/Info : Enhanced AC-3
Commercial name : Dolby Digital Plus
Codec ID : A_EAC3
Duration : 1 h 10 min
Bit rate mode : Constant
Bit rate : 128 kb/s
Channel(s) : 2 channels
Channel layout : L R
Sampling rate : 48.0 kHz
Frame rate : 31.250 FPS (1536 SPF)
Compression mode : Lossy
Stream size : 64.2 MiB (2%)
Language : Korean
Service kind : Complete Main
Default : Yes
Forced : No

Text #1
ID : 3
Format : UTF-8
Codec ID : S_TEXT/UTF8
Codec ID/Info : UTF-8 Plain Text
Duration : 1 h 9 min
Bit rate : 69 b/s
Frame rate : 0.265 FPS
Count of elements : 1111
Stream size : 35.3 KiB (0%)
Title : SDH
Language : Korean
Default : No
Forced : No

Text #2
ID : 4
Format : UTF-8
Codec ID : S_TEXT/UTF8
Codec ID/Info : UTF-8 Plain Text
Duration : 1 h 9 min
Bit rate : 40 b/s
Frame rate : 0.210 FPS
Count of elements : 876
Stream size : 20.4 KiB (0%)
Title : Simplified
Language : Chinese
Default : No
Forced : No

Text #3
ID : 5
Format : UTF-8
Codec ID : S_TEXT/UTF8
Codec ID/Info : UTF-8 Plain Text
Duration : 1 h 9 min
Bit rate : 40 b/s
Frame rate : 0.210 FPS
Count of elements : 876
Stream size : 20.6 KiB (0%)
Title : Traditional
Language : Chinese
Default : No
Forced : No

Text #4
ID : 6
Format : UTF-8
Codec ID : S_TEXT/UTF8
Codec ID/Info : UTF-8 Plain Text
Duration : 1 h 9 min
Bit rate : 41 b/s
Frame rate : 0.209 FPS
Count of elements : 869
Stream size : 21.2 KiB (0%)
Language : English
Default : No
Forced : No

Text #5
ID : 7
Format : UTF-8
Codec ID : S_TEXT/UTF8
Codec ID/Info : UTF-8 Plain Text
Duration : 1 h 9 min
Bit rate : 108 b/s
Frame rate : 0.209 FPS
Count of elements : 869
Stream size : 55.0 KiB (0%)
Language : Thai
Default : No
Forced : No

Menu
00:00:05.005 : en:Opening Credits
00:00:33.992 : en:Chapter 01
01:09:57.000 : en:End Credits


点击图片可查看大图

软字幕无法在截图上展现,HDR版本/杜比视界版本截图会出现颜色异常,请使用支持的设备播放!

部分资源为软字幕,移动端推荐播放器:MxPlayer,nPlayer,infuse ,其他播放器请自行尝试。

部分资源为软字幕,电脑端推荐播放器:PotPlayer,完美解码,KMPLAYER,其他播放器请自行尝试。

下载端推荐纯BT下载软件:qBittorrent,Bitcomet,uTorrent ,其他下载软件请自行尝试。不支持吸血迅雷。

上传的附件:
最新回复 (0)