2023 英国 剧情 WEB-1080P 现代生活的秘密天才 第二季[第03集][中文字幕].2022.1080p.Hami.WEB-DL.H264.AAC-LelveTV 2.79GB

RAY20920M 2024-06-11 21:31 544


完整标题:现代生活的秘密天才 第二季[第03集][中文字幕].2022.1080p.Hami.WEB-DL.H264.AAC-LelveTV 2.79GB




◎标  题 现代生活的秘密天才 第二季
◎片  名 The Secret Genius of Modern Life Season 2
◎年  代 2023
◎产  地 英国
◎类  别 纪录片
◎语  言 英语
◎IMDb评分 8.1/10 (16人评价)
◎IMDb链接 https://www.imdb.com/title/tt29965503/
◎豆瓣链接 https://movie.douban.com/subject/36733116/
◎演  员 Hannah Fry Hannah Fry

◎简  介
    Hannah Fry uncovers the secrets behind the miraculous technologies of the modern world,revealing the mind blowing stories behind their invention.   Episode 1: Passport   Hannah gains access to a top-secret site where anonymous staff and the latest tech work to make the British passport one of the most secure documents on the planet.   Episode 2: Vacuum Cleaner   Hannah Fry reveals the incredible tales behind the development of the contemporary world's marvelous technology and unearths their mysteries. Hannah takes a look at the vacuum cleaner, going behind the scenes with Dyson and discovering how the motor in their latest vacuum spins nine times faster than that of a Formula One race car.   Episode 3: Smartphone   With over six billion of them across the planet, smartphones have changed the modern world. With rare access to electronics giant Samsung, Professor Hannah uncovers the technological game changers that have made the smartphone a reality.   Episode 4: Microwave   Hannah Fry discovers the hidden WWII radar technology that heats up beans, learns the legend of the melted candy bar in an engineer's pocket that kick-started revolution.   Episode 5: Headphones   Headphones are worn by over 30 million people in the UK. Hannah Fry visits legendary headphone honchos Bose to find out how today's teeny earbud tech works and meets the human testers with 'golden ears'.   Episode 6: Lift   Fry goes behind the scenes to look at the tech behind the lift. Along the way, she finds out how coal mines made lifts safer, gets to grips with a piece of medieval siege technology, and discovers how a PR stunt changed the modern skyline.

##### MediaInfo ######
General
Unique ID : 167563185195105452831799364615188693861 (0x7E0F7EDF468FBF1FE55370FD4F72C365)
Complete name : The.Secret.Genius.of.Modern.Life.S02E03.2022.1080p.Hami.WEB-DL.H264.AAC-LelveTV.mkv
Duration : 50 min 23 s
Overall bit rate : 7 932 kb/s

Video
ID : 1
Format : AVC
Format/Info : Advanced Video Codec
Format profile : High@L4
Format settings : CABAC / 3 Ref Frames
Format settings, CABAC : Yes
Format settings, Reference frames : 3 frames
Format settings, GOP : M=1, N=30
Codec ID : V_MPEG4/ISO/AVC
Duration : 50 min 23 s
Bit rate : 7 872 kb/s
Width : 1 920 pixels
Height : 1 080 pixels
Display aspect ratio : 16:9
Frame rate mode : Constant
Frame rate : 29.970 (29970/1000) FPS
Color space : YUV
Chroma subsampling : 4:2:0
Bit depth : 8 bits
Scan type : Progressive
Bits/(Pixel*Frame) : 0.127
Stream size : 2.75 GiB (98%)
Writing library : x264 core 157 r2935 545de2f
Encoding settings : cabac=1 / ref=3 / deblock=1:0:0 / analyse=0x3:0x113 / me=hex / subme=7 / psy=1 / psy_rd=1.00:0.00 / mixed_ref=1 / me_range=16 / chroma_me=1 / trellis=1 / 8x8dct=1 / cqm=0 / deadzone=21,11 / fast_pskip=1 / chroma_qp_offset=-2 / threads=34 / lookahead_threads=5 / sliced_threads=0 / nr=0 / decimate=1 / interlaced=0 / bluray_compat=0 / constrained_intra=0 / bframes=0 / weightp=2 / keyint=30 / keyint_min=16 / scenecut=0 / intra_refresh=0 / rc_lookahead=30 / rc=abr / mbtree=1 / bitrate=7872 / ratetol=1.0 / qcomp=0.60 / qpmin=0 / qpmax=69 / qpstep=4 / vbv_maxrate=8000 / vbv_bufsize=7872 / nal_hrd=none / filler=0 / ip_ratio=1.40 / aq=1:1.00
Default : Yes
Forced : No

Audio
ID : 2
Format : AAC LC
Format/Info : Advanced Audio Codec Low Complexity
Codec ID : A_AAC-2
Duration : 50 min 23 s
Bit rate : 128 kb/s
Channel(s) : 2 channels
Channel layout : L R
Sampling rate : 48.0 kHz
Frame rate : 46.875 FPS (1024 SPF)
Compression mode : Lossy
Stream size : 46.3 MiB (2%)
Default : Yes
Forced : No


点击图片可查看大图

软字幕无法在截图上展现,HDR版本/杜比视界版本截图会出现颜色异常,请使用支持的设备播放!

部分资源为软字幕,移动端推荐播放器:MxPlayer,nPlayer,infuse ,其他播放器请自行尝试。

部分资源为软字幕,电脑端推荐播放器:PotPlayer,完美解码,KMPLAYER,其他播放器请自行尝试。

下载端推荐纯BT下载软件:qBittorrent,Bitcomet,uTorrent ,其他下载软件请自行尝试。不支持吸血迅雷。

上传的附件:
最新回复 (0)