2024 大陆 剧情 WEB-4K 末代厨娘[第37集][国语配音/中文字幕].The.Last.Cook.S01.2024.2160p.WEB-DL.H265.DDP2.0-ZeroTV 0.68GB

MAY20919R 2024-06-11 21:33 1591


完整标题:末代厨娘[第37集][国语配音/中文字幕].The.Last.Cook.S01.2024.2160p.WEB-DL.H265.DDP2.0-ZeroTV 0.68GB




◎标  题 末代厨娘
◎译  名 The Last Cook
◎年  代 2024
◎产  地 中国大陆
◎类  别 剧情 / 古装
◎语  言 汉语普通话
◎IMDb链接 https://www.imdb.com/title//
◎豆瓣链接 https://movie.douban.com/subject/30459704/
◎导  演 许超
      张国立 Guoli Zhang
◎编  剧 何冀平 Jiping He
      马东淼 Dongmiao Ma
◎演  员 海陆 Lu Hai
      纪凌尘 Lingchen Ji
      胡杏儿 Myolie Wu
      曾黎 Li Zeng
      张铁林 Tielin Zhang
      邓丽欣 Stephy Tang
      范湉湉 Tiantian Fan
      郭孟旭
      李明德 Mingde Li
      姚远 Yuan Yao
      李逸男 Yinan Li
      王艺哲 Yizhe Wang
      秦焰 Yan Qin
      高晓菲 Xiaofei Gao
      王刚 Gang Wang
      郭其城 Qicheng Guo
      郭振迦 Zhenjia Guo
      李泊文 Bowen Li
      刘伊一
      柏安 An Bai
      张晞临 Xilin Zhang
      蒲诗韵 Shiyun Pu
      沈保平 Baoping Shen
      宣璐 Lu Xuan
      李悦溪 Yuexi Li
      李欣聪 Xincong Li
      张皓伦 Haolun Zhang

◎简  介
    民国十二年,清室皇帝虽已退位,但紫禁城内仍是君君臣臣的小朝廷。民女容儿阴差阳错成为宫女后,与侍卫李琪结下渊源,又因自己聪慧活泼而受溥仪青睐。容儿出于对厨艺的悟性颇受寿喜姑姑赏识。   两宫太监总管孙义仁长期盗窃宫内珍宝,草菅人命。容儿得知此事后与李琪并肩调查盗宝案,几经生死终将孙义仁绳之以法,但幕后黑手却依然隐藏在暗处。   民国十三年,冯玉祥军队将清室逐出紫禁城。盗宝案幕后黑手企图将宫中宝物转移卖给洋商,该阴谋被容儿撞破。众人联手追回国宝,让盗宝奸人得到了应有的惩罚。离开紫禁城的容儿在北京城重开饭馆,人称“末代厨娘”。

##### MediaInfo ######
General
Unique ID : 155044153772982559924553444036992960782 (0x74A46AF7E9CD87E59A1412881E56090E)
Complete name : 末代厨娘.The.Last.Cook.S01E37.2024.2160p.WEB-DL.H265.DDP2.0-ZeroTV.mkv
Duration : 41 min 12 s
Overall bit rate : 2 349 kb/s

Video
ID : 1
Format : HEVC
Format/Info : High Efficiency Video Coding
Format profile : Main@L5@Main
Codec ID : V_MPEGH/ISO/HEVC
Duration : 41 min 12 s
Bit rate : 1 965 kb/s
Width : 3 840 pixels
Height : 2 160 pixels
Display aspect ratio : 16:9
Frame rate mode : Constant
Frame rate : 25.000 FPS
Color space : YUV
Chroma subsampling : 4:2:0
Bit depth : 8 bits
Bits/(Pixel*Frame) : 0.009
Stream size : 579 MiB (84%)
Writing library : Tencent-V265-1.6.9.1-p1k184g16lh64f4ra1.
Default : Yes
Forced : No
Color range : Limited
Color primaries : BT.709
Transfer characteristics : BT.709
Matrix coefficients : BT.709

Audio #1
ID : 2
Format : E-AC-3
Format/Info : Enhanced AC-3
Commercial name : Dolby Digital Plus
Codec ID : A_EAC3
Duration : 41 min 12 s
Bit rate mode : Constant
Bit rate : 256 kb/s
Channel(s) : 2 channels
Channel layout : L R
Sampling rate : 48.0 kHz
Frame rate : 31.250 FPS (1536 SPF)
Compression mode : Lossy
Delay relative to video : -42 ms
Stream size : 75.5 MiB (11%)
Title : Mandarin
Language : Chinese
Service kind : Complete Main
Default : Yes
Forced : No

Audio #2
ID : 3
Format : AAC LC
Format/Info : Advanced Audio Codec Low Complexity
Codec ID : A_AAC-2
Duration : 41 min 12 s
Bit rate : 125 kb/s
Channel(s) : 2 channels
Channel layout : L R
Sampling rate : 48.0 kHz
Frame rate : 46.875 FPS (1024 SPF)
Compression mode : Lossy
Delay relative to video : -42 ms
Stream size : 37.0 MiB (5%)
Title : Mandarin
Language : Chinese
Default : No
Forced : No


点击图片可查看大图

软字幕无法在截图上展现,HDR版本/杜比视界版本截图会出现颜色异常,请使用支持的设备播放!

部分资源为软字幕,移动端推荐播放器:MxPlayer,nPlayer,infuse ,其他播放器请自行尝试。

部分资源为软字幕,电脑端推荐播放器:PotPlayer,完美解码,KMPLAYER,其他播放器请自行尝试。

下载端推荐纯BT下载软件:qBittorrent,Bitcomet,uTorrent ,其他下载软件请自行尝试。不支持吸血迅雷。

上传的附件:
最新回复 (0)