2024 日本 剧情 WEB-1080P 从Lv2开始开外挂的前勇者候补过着悠哉异世界生活[第10集][简繁英字幕].2024.1080p.B-Global.WEB-DL.x264.AAC-ZeroTV 0.26GB

MAY20919R 2024-06-11 21:33 548


完整标题:从Lv2开始开外挂的前勇者候补过着悠哉异世界生活[第10集][简繁英字幕].2024.1080p.B-Global.WEB-DL.x264.AAC-ZeroTV 0.26GB




◎标  题 从Lv2开始开外挂的前勇者候补过着悠哉异世界生活
◎译  名 从Lv2开始开挂的原勇者候补悠闲的异世界生活
◎片  名 Lv2からチートだった元勇者候補のまったり異世界ライフ
◎年  代 2024
◎产  地 日本
◎类  别 剧情 / 动画 / 奇幻 / 冒险
◎语  言 日语
◎IMDb链接 https://www.imdb.com/title//
◎豆瓣评分 5.5/10 (267人评价)
◎豆瓣链接 https://movie.douban.com/subject/36603547/
◎导  演 岩崎良明 Yoshiaki Iwasaki
      明田川仁 Aketagawa Jin
◎编  剧 清水惠 Megumi Shimizu
◎演  员 日野聪 Satoshi Hino
      钉宫理惠 Rie Kugimiya
      山根绮 Yamane Aya
      日野麻里 Mari Hino
      广濑有纪 Yuuki Hirose
      稗田宁宁 Hieda Nene
      村田太志 Taishi Murata
      高桥美佳子 Mikako Takahashi
      川澄绫子 Ayako Kawasumi
      井口裕香 Yuka Iguchi
      堀江由衣 Yui Horie
      前野智昭 Tomoaki Maeno
      田村由香里 Yukari Tamura
      伊藤静 Shizuka Ito
      楠大典 Taiten Kusunoki
      新井里美 Satomi Arai

◎简  介
    巴那萨以勇者候补的身分被召唤到位于异世界的库莱洛德魔法国,由于他的能力只相当于一般市民,所以被烙上了失格勇者的烙印。结果发生失误造成巴那萨的遣还程序失败,让他无法回到原本的世界──!?   莫可奈何之下,巴那萨只好留在异世界定居,他在森林里打败史莱姆,得以提升等级。就在这一瞬间──   「怎么回事……!?这个∞是?」   巴那萨升到等级2之后,他的能力值全都变成「∞」──他学会了所有技能和魔法,全部的能力值都变得超强!   即使遇上这种特殊状况,巴那萨却误以为这在异世界是很常见的,他为了隐姓埋名,取了费里欧这个假名。为了获得工作,费里欧前往冒险者公会,他在那里与魔族出身的芬里丝有了一场命中注定的邂逅……!?

##### MediaInfo ######
General
Unique ID : 139685600881626800219206135927910833586 (0x691677D8ECD5CC9A4E0FB0B6C71E1DB2)
Complete name : Lv2.Kara.Cheat.datta.Moto.Yuusha.Kouho.no.Mattari.Isekai.Life.S01E10.2024.1080p.WEB-DL.x264.AAC-ZeroTV.mkv
Duration : 24 min 0 s
Overall bit rate : 1 551 kb/s

Video
ID : 1
Format : AVC
Format/Info : Advanced Video Codec
Format profile : High@L5
Format settings : CABAC / 8 Ref Frames
Format settings, CABAC : Yes
Format settings, Reference frames : 8 frames
Codec ID : V_MPEG4/ISO/AVC
Duration : 24 min 0 s
Bit rate : 1 364 kb/s
Width : 1 920 pixels
Height : 1 080 pixels
Display aspect ratio : 16:9
Frame rate mode : Constant
Frame rate : 23.976 (24000/1001) FPS
Original frame rate : 23.976 (23976/1000) FPS
Color space : YUV
Chroma subsampling : 4:2:0
Bit depth : 8 bits
Scan type : Progressive
Bits/(Pixel*Frame) : 0.027
Stream size : 234 MiB (88%)
Title : Japanese
Language : Japanese
Default : Yes
Forced : No
Color range : Limited
Color primaries : BT.709
Transfer characteristics : BT.709
Matrix coefficients : BT.709

Audio
ID : 2
Format : AAC LC
Format/Info : Advanced Audio Codec Low Complexity
Codec ID : A_AAC-2
Duration : 24 min 0 s
Bit rate : 184 kb/s
Channel(s) : 2 channels
Channel layout : L R
Sampling rate : 48.0 kHz
Frame rate : 46.875 FPS (1024 SPF)
Compression mode : Lossy
Stream size : 31.6 MiB (12%)
Title : Japanese
Language : Japanese
Default : Yes
Forced : No

Text #1
ID : 3
Format : UTF-8
Codec ID : S_TEXT/UTF8
Codec ID/Info : UTF-8 Plain Text
Duration : 23 min 49 s
Bit rate : 70 b/s
Frame rate : 0.302 FPS
Count of elements : 432
Stream size : 12.2 KiB (0%)
Title : Chinese Simplified
Language : Chinese
Default : Yes
Forced : No

Text #2
ID : 4
Format : UTF-8
Codec ID : S_TEXT/UTF8
Codec ID/Info : UTF-8 Plain Text
Duration : 23 min 49 s
Bit rate : 70 b/s
Frame rate : 0.302 FPS
Count of elements : 432
Stream size : 12.2 KiB (0%)
Title : Chinese Traditional
Language : Chinese
Default : No
Forced : No

Text #3
ID : 5
Format : UTF-8
Codec ID : S_TEXT/UTF8
Codec ID/Info : UTF-8 Plain Text
Duration : 23 min 51 s
Bit rate : 65 b/s
Frame rate : 0.221 FPS
Count of elements : 316
Stream size : 11.4 KiB (0%)
Title : English
Language : English
Default : No
Forced : No

Text #4
ID : 6
Format : UTF-8
Codec ID : S_TEXT/UTF8
Codec ID/Info : UTF-8 Plain Text
Duration : 23 min 50 s
Bit rate : 183 b/s
Frame rate : 0.268 FPS
Count of elements : 384
Stream size : 32.0 KiB (0%)
Title : ???????
Language : Thai
Default : No
Forced : No


点击图片可查看大图

软字幕无法在截图上展现,HDR版本/杜比视界版本截图会出现颜色异常,请使用支持的设备播放!

部分资源为软字幕,移动端推荐播放器:MxPlayer,nPlayer,infuse ,其他播放器请自行尝试。

部分资源为软字幕,电脑端推荐播放器:PotPlayer,完美解码,KMPLAYER,其他播放器请自行尝试。

下载端推荐纯BT下载软件:qBittorrent,Bitcomet,uTorrent ,其他下载软件请自行尝试。不支持吸血迅雷。

上传的附件:
最新回复 (0)