2024 英国 剧情 WEB-4K 神秘博士 第一季[第09集][简繁英字幕].Doctor.Who.S01.2024.2160p.DSNP.WEB-DL.H265.HDR.DDP5.1-ZeroTV 5.27GB

MAY20919R 2024-06-23 01:41 1194


完整标题:神秘博士 第一季[第09集][简繁英字幕].Doctor.Who.S01.2024.2160p.DSNP.WEB-DL.H265.HDR.DDP5.1-ZeroTV 5.27GB




◎标  题 神秘博士 第一季
◎译  名 超时空奇侠(港 / 台) / 神秘博士2024 / 神秘博士第十四季 / Doctor Who Season 14
◎片  名 Doctor Who Season 1
◎年  代 2024
◎产  地 英国
◎类  别 剧情 / 科幻 / 冒险
◎语  言 英语
◎IMDb评分 6/10 (9816人评价)
◎IMDb链接 https://www.imdb.com/title/tt31433814/
◎豆瓣评分 7.0/10 (521人评价)
◎豆瓣链接 https://movie.douban.com/subject/35642159/
◎导  演 汤姆·金斯利 Tom Kingsley
      瑞秋·塔拉蕾 Rachel Talalay
      钱亚·波顿 Chanya Button
      本·切塞尔 Ben Chessell
      迪伦·霍姆斯·威廉斯 Dylan Holmes Williams
      马克·托德莱 Mark Tonderai
      朱莉·安妮·罗宾逊 Julie Anne Robinson
◎编  剧 拉塞尔·T·戴维斯 Russell T. Davies
      凯特·赫伦 Kate Herron
      布里奥妮·瑞德曼 Briony Redman
◎演  员 舒提·盖特瓦 Ncuti Gatwa
      米莉·吉布森 Millie Gibson
      大卫·田纳特 David Tennant
      凯瑟琳·塔特 Catherine Tate
      安吉拉·温特 Angela Wynter
      安妮塔·多布森 Anita Dobson
      吉克克斯·蒙索 Jinkx Monsoon
      阿奈林·巴纳德 Aneurin Barnard
      雅斯敏·芬尼 Yasmin Finney
      乔纳森·格罗夫 Jonathan Groff
      邦妮·兰福德 Bonnie Langford
      吉玛·雷德格里夫 Jemma Redgrave
      兰尼·拉什 Lenny Rush
      因迪拉·瓦玛 Indira Varma
      杰克·福赛思-诺布尔 Jack Forsyth-Noble
      巴夫·乔希 Bhav Joshi
      艾利德·罗安 Eilidh Loan
      皮特·马切勒 Pete MacHale
      迈尔斯·叶基尼 Miles Yekinni
      赫米·耶洛罕 Hemi Yeroham
      伯纳德·克理宾斯 Bernard Cribbins
      杰奎琳·金 Jacqueline Kim
      卡尔·柯林斯 Karl Collins
      鲁思·马德利 Ruth Madeley
      米瑞安·玛格莱斯 Miriam Margolyes

◎简  介
    第15任博士(舒提·盖特瓦 Ncuti Gatwa 饰)华丽登场,和拍档Ruby Sunday(米莉·吉布森 Millie Gibson 饰)用TARDIS穿梭不同时空,从英国摄政时代去到未来世界,遇上各种新朋友与新敌人,更要面对史上最强大的敌人。

##### MediaInfo ######
General
Unique ID : 155271762725401471739346891188612275755 (0x74D040F4C7F9F5918E7D8D9A3FFE9E2B)
Complete name : Doctor.Who.S01E09.2024.2160p.DSNP.WEB-DL.H265.HDR.DDP5.1-ZeroTV.mkv
Duration : 54 min 12 s
Overall bit rate : 13.9 Mb/s

Video
ID : 1
Format : HEVC
Format/Info : High Efficiency Video Coding
Format profile : Main 10@L5@High
HDR format : SMPTE ST 2086, HDR10 compatible
Codec ID : V_MPEGH/ISO/HEVC
Duration : 54 min 12 s
Bit rate : 13.7 Mb/s
Width : 3 840 pixels
Height : 2 160 pixels
Display aspect ratio : 16:9
Frame rate mode : Constant
Frame rate : 25.000 FPS
Color space : YUV
Chroma subsampling : 4:2:0
Bit depth : 10 bits
Bits/(Pixel*Frame) : 0.066
Stream size : 5.17 GiB (98%)
Default : Yes
Forced : No
Color range : Limited
Color primaries : BT.2020
Transfer characteristics : PQ
Matrix coefficients : BT.2020 non-constant
Mastering display color primaries : BT.2020
Mastering display luminance : min: 0.0001 cd/m2, max: 1000 cd/m2

Audio
ID : 2
Format : E-AC-3
Format/Info : Enhanced AC-3
Commercial name : Dolby Digital Plus
Codec ID : A_EAC3
Duration : 54 min 12 s
Bit rate mode : Constant
Bit rate : 256 kb/s
Channel(s) : 6 channels
Channel layout : L R C LFE Ls Rs
Sampling rate : 48.0 kHz
Frame rate : 31.250 FPS (1536 SPF)
Compression mode : Lossy
Stream size : 99.2 MiB (2%)
Title : English [Original]
Language : English
Service kind : Complete Main
Default : Yes
Forced : No

Text #1
ID : 3
Format : UTF-8
Codec ID : S_TEXT/UTF8
Codec ID/Info : UTF-8 Plain Text
Duration : 53 min 56 s
Bit rate : 46 b/s
Frame rate : 0.208 FPS
Count of elements : 672
Stream size : 18.2 KiB (0%)
Title : Chinese Simplified
Language : Chinese
Default : Yes
Forced : No

Text #2
ID : 4
Format : UTF-8
Codec ID : S_TEXT/UTF8
Codec ID/Info : UTF-8 Plain Text
Duration : 52 min 56 s
Bit rate : 60 b/s
Frame rate : 0.251 FPS
Count of elements : 797
Stream size : 23.4 KiB (0%)
Title : British English
Language : English
Default : No
Forced : No

Text #3
ID : 5
Format : UTF-8
Codec ID : S_TEXT/UTF8
Codec ID/Info : UTF-8 Plain Text
Duration : 53 min 56 s
Bit rate : 46 b/s
Frame rate : 0.208 FPS
Count of elements : 672
Stream size : 18.2 KiB (0%)
Title : Chinese Traditional
Language : Chinese
Default : Yes
Forced : No

Text #4
ID : 6
Format : UTF-8
Codec ID : S_TEXT/UTF8
Codec ID/Info : UTF-8 Plain Text
Duration : 53 min 56 s
Bit rate : 48 b/s
Frame rate : 0.192 FPS
Count of elements : 621
Stream size : 19.0 KiB (0%)
Title : Czech
Language : Czech
Default : No
Forced : No

Text #5
ID : 7
Format : UTF-8
Codec ID : S_TEXT/UTF8
Codec ID/Info : UTF-8 Plain Text
Duration : 53 min 56 s
Bit rate : 47 b/s
Frame rate : 0.190 FPS
Count of elements : 615
Stream size : 18.8 KiB (0%)
Title : Danish
Language : Danish
Default : No
Forced : No

Text #6
ID : 8
Format : UTF-8
Codec ID : S_TEXT/UTF8
Codec ID/Info : UTF-8 Plain Text
Duration : 53 min 56 s
Bit rate : 44 b/s
Frame rate : 0.153 FPS
Count of elements : 496
Stream size : 17.4 KiB (0%)
Title : Dutch
Language : Dutch
Default : No
Forced : No

Text #7
ID : 9
Format : UTF-8
Codec ID : S_TEXT/UTF8
Codec ID/Info : UTF-8 Plain Text
Duration : 53 min 56 s
Bit rate : 47 b/s
Frame rate : 0.205 FPS
Count of elements : 662
Stream size : 18.9 KiB (0%)
Title : French
Language : French
Default : No
Forced : No

Text #8
ID : 10
Format : UTF-8
Codec ID : S_TEXT/UTF8
Codec ID/Info : UTF-8 Plain Text
Duration : 53 min 56 s
Bit rate : 47 b/s
Frame rate : 0.179 FPS
Count of elements : 580
Stream size : 18.7 KiB (0%)
Title : Finnish
Language : Finnish
Default : No
Forced : No

Text #9
ID : 11
Format : UTF-8
Codec ID : S_TEXT/UTF8
Codec ID/Info : UTF-8 Plain Text
Duration : 53 min 56 s
Bit rate : 49 b/s
Frame rate : 0.203 FPS
Count of elements : 657
Stream size : 19.4 KiB (0%)
Title : German
Language : German
Default : No
Forced : No

Text #10
ID : 12
Format : UTF-8
Codec ID : S_TEXT/UTF8
Codec ID/Info : UTF-8 Plain Text
Duration : 53 min 56 s
Bit rate : 82 b/s
Frame rate : 0.202 FPS
Count of elements : 655
Stream size : 32.7 KiB (0%)
Title : Greek
Language : Greek
Default : No
Forced : No

Text #11
ID : 13
Format : UTF-8
Codec ID : S_TEXT/UTF8
Codec ID/Info : UTF-8 Plain Text
Duration : 53 min 56 s
Bit rate : 46 b/s
Frame rate : 0.201 FPS
Count of elements : 650
Stream size : 18.5 KiB (0%)
Title : Hungarian
Language : Hungarian
Default : No
Forced : No

Text #12
ID : 14
Format : UTF-8
Codec ID : S_TEXT/UTF8
Codec ID/Info : UTF-8 Plain Text
Duration : 53 min 56 s
Bit rate : 46 b/s
Frame rate : 0.205 FPS
Count of elements : 664
Stream size : 18.5 KiB (0%)
Title : Japanese
Language : Japanese
Default : No
Forced : No

Text #13
ID : 15
Format : UTF-8
Codec ID : S_TEXT/UTF8
Codec ID/Info : UTF-8 Plain Text
Duration : 53 min 56 s
Bit rate : 45 b/s
Frame rate : 0.205 FPS
Count of elements : 663
Stream size : 18.1 KiB (0%)
Title : Italian
Language : Italian
Default : No
Forced : No

Text #14
ID : 16
Format : UTF-8
Codec ID : S_TEXT/UTF8
Codec ID/Info : UTF-8 Plain Text
Duration : 53 min 56 s
Bit rate : 57 b/s
Frame rate : 0.207 FPS
Count of elements : 671
Stream size : 22.6 KiB (0%)
Title : Korean
Language : Korean
Default : No
Forced : No

Text #15
ID : 17
Format : UTF-8
Codec ID : S_TEXT/UTF8
Codec ID/Info : UTF-8 Plain Text
Duration : 53 min 56 s
Bit rate : 45 b/s
Frame rate : 0.150 FPS
Count of elements : 486
Stream size : 18.2 KiB (0%)
Title : Norwegian
Language : Norwegian
Default : No
Forced : No

Text #16
ID : 18
Format : UTF-8
Codec ID : S_TEXT/UTF8
Codec ID/Info : UTF-8 Plain Text
Duration : 53 min 56 s
Bit rate : 46 b/s
Frame rate : 0.197 FPS
Count of elements : 637
Stream size : 18.5 KiB (0%)
Title : Polish
Language : Polish
Default : No
Forced : No

Text #17
ID : 19
Format : UTF-8
Codec ID : S_TEXT/UTF8
Codec ID/Info : UTF-8 Plain Text
Duration : 53 min 56 s
Bit rate : 48 b/s
Frame rate : 0.206 FPS
Count of elements : 667
Stream size : 19.2 KiB (0%)
Title : Portuguese
Language : Portuguese
Default : No
Forced : No

Text #18
ID : 20
Format : UTF-8
Codec ID : S_TEXT/UTF8
Codec ID/Info : UTF-8 Plain Text
Duration : 53 min 56 s
Bit rate : 47 b/s
Frame rate : 0.201 FPS
Count of elements : 650
Stream size : 18.8 KiB (0%)
Title : Brazilian Portuguese
Language : Portuguese
Default : No
Forced : No

Text #19
ID : 21
Format : UTF-8
Codec ID : S_TEXT/UTF8
Codec ID/Info : UTF-8 Plain Text
Duration : 52 min 59 s
Bit rate : 46 b/s
Frame rate : 0.177 FPS
Count of elements : 563
Stream size : 17.9 KiB (0%)
Title : Romanian
Language : Romanian
Default : No
Forced : No

Text #20
ID : 22
Format : UTF-8
Codec ID : S_TEXT/UTF8
Codec ID/Info : UTF-8 Plain Text
Duration : 53 min 56 s
Bit rate : 43 b/s
Frame rate : 0.198 FPS
Count of elements : 642
Stream size : 17.2 KiB (0%)
Title : Slovak
Language : Slovak
Default : No
Forced : No

Text #21
ID : 23
Format : UTF-8
Codec ID : S_TEXT/UTF8
Codec ID/Info : UTF-8 Plain Text
Duration : 53 min 56 s
Bit rate : 46 b/s
Frame rate : 0.189 FPS
Count of elements : 612
Stream size : 18.2 KiB (0%)
Title : Spanish
Language : Spanish
Default : No
Forced : No

Text #22
ID : 24
Format : UTF-8
Codec ID : S_TEXT/UTF8
Codec ID/Info : UTF-8 Plain Text
Duration : 53 min 56 s
Bit rate : 46 b/s
Frame rate : 0.193 FPS
Count of elements : 623
Stream size : 18.4 KiB (0%)
Title : Swedish
Language : Swedish
Default : No
Forced : No

Text #23
ID : 25
Format : UTF-8
Codec ID : S_TEXT/UTF8
Codec ID/Info : UTF-8 Plain Text
Duration : 53 min 56 s
Bit rate : 47 b/s
Frame rate : 0.205 FPS
Count of elements : 664
Stream size : 18.9 KiB (0%)
Title : Turkish
Language : Turkish
Default : No
Forced : No


点击图片可查看大图

软字幕无法在截图上展现,HDR版本/杜比视界版本截图会出现颜色异常,请使用支持的设备播放!

部分资源为软字幕,移动端推荐播放器:MxPlayer,nPlayer,infuse ,其他播放器请自行尝试。

部分资源为软字幕,电脑端推荐播放器:PotPlayer,完美解码,KMPLAYER,其他播放器请自行尝试。

下载端推荐纯BT下载软件:qBittorrent,Bitcomet,uTorrent ,其他下载软件请自行尝试。不支持吸血迅雷。

上传的附件:
最新回复 (0)