2024 韩国 喜剧 WEB-1080P 我公然梦想成为灰姑娘[第07-08集][中文字幕].Dreaming.of.a.Freaking.Fairytale.S01.2024.1080p.WEB-DL.H264.AAC-ZeroTV 4.68GB

MAY20919R 2024-06-23 01:42 11435


完整标题:我公然梦想成为灰姑娘[第07-08集][中文字幕].Dreaming.of.a.Freaking.Fairytale.S01.2024.1080p.WEB-DL.H264.AAC-ZeroTV 4.68GB




◎标  题 我公然梦想成为灰姑娘
◎译  名 我明目张胆地梦想成为灰姑娘 / 我的梦想就是成为灰姑娘
◎片  名 나는 대놓고 신데렐라를 꿈꾼다
◎年  代 2024
◎产  地 韩国
◎类  别 喜剧 / 爱情
◎语  言 韩语
◎IMDb评分 8.3/10 (70人评价)
◎IMDb链接 https://www.imdb.com/title/tt32499919/
◎豆瓣评分 5.6/10 (353人评价)
◎豆瓣链接 https://movie.douban.com/subject/36442775/
◎导  演 金玟暻 Min-kyung Kim
◎编  剧 白美琼 Mi-kyeong Baek
◎演  员 表艺珍 Ye-jin Pyo
      李濬荣 Joon-young Lee
      金贤镇 Hyun Jin Kim
      宋智友 Ji-Woo Song
      李芝慧 Lee Ji Hye

◎简  介
    21世纪灰姑娘故事。文车民是个不相信人的财阀家傲慢王子,也是清潭天堂社交俱乐部的代表。他像石头一样讨厌女人,却意外和新来的梦想成为灰姑娘的申在林纠缠在一起,逐渐明白自己的感情。

##### MediaInfo ######
General
Unique ID : 223267542743323806558019533478253252697 (0xA7F7C3BDFFDFE0111136B713133B5059)
Complete name : Dreaming.of.a.Freaking.Fairytale.S01E07.2024.1080p.WEB-DL.H264.AAC-ZeroTV.mkv
Duration : 44 min 5 s
Overall bit rate : 7 520 kb/s

Video
ID : 1
Format : AVC
Format/Info : Advanced Video Codec
Format profile : High@L4.1
Format settings : CABAC / 1 Ref Frames
Format settings, CABAC : Yes
Format settings, Reference frames : 1 frame
Format settings, GOP : M=1, N=60
Codec ID : V_MPEG4/ISO/AVC
Duration : 44 min 5 s
Bit rate mode : Constant
Bit rate : 7 392 kb/s
Nominal bit rate : 8 000 kb/s
Width : 1 920 pixels
Height : 1 080 pixels
Display aspect ratio : 16:9
Frame rate mode : Constant
Frame rate : 29.970 (30000/1001) FPS
Color space : YUV
Chroma subsampling : 4:2:0
Bit depth : 8 bits
Scan type : Progressive
Bits/(Pixel*Frame) : 0.119
Stream size : 2.28 GiB (98%)
Language : English
Default : Yes
Forced : No

Audio
ID : 2
Format : AAC LC
Format/Info : Advanced Audio Codec Low Complexity
Codec ID : A_AAC-2
Duration : 44 min 4 s
Bit rate : 125 kb/s
Channel(s) : 2 channels
Channel layout : L R
Sampling rate : 48.0 kHz
Frame rate : 46.875 FPS (1024 SPF)
Compression mode : Lossy
Stream size : 39.5 MiB (2%)
Title : 韩语
Language : Korean
Default : Yes
Forced : No

Text #1
ID : 3
Format : UTF-8
Codec ID : S_TEXT/UTF8
Codec ID/Info : UTF-8 Plain Text
Duration : 42 min 6 s
Bit rate : 54 b/s
Frame rate : 0.266 FPS
Count of elements : 673
Stream size : 16.8 KiB (0%)
Title : 简体中文
Language : Chinese
Default : No
Forced : No

Text #2
ID : 4
Format : UTF-8
Codec ID : S_TEXT/UTF8
Codec ID/Info : UTF-8 Plain Text
Duration : 42 min 6 s
Bit rate : 54 b/s
Frame rate : 0.266 FPS
Count of elements : 673
Stream size : 16.8 KiB (0%)
Title : 繁体中文
Language : Chinese
Default : No
Forced : No


点击图片可查看大图

软字幕无法在截图上展现,HDR版本/杜比视界版本截图会出现颜色异常,请使用支持的设备播放!

部分资源为软字幕,移动端推荐播放器:MxPlayer,nPlayer,infuse ,其他播放器请自行尝试。

部分资源为软字幕,电脑端推荐播放器:PotPlayer,完美解码,KMPLAYER,其他播放器请自行尝试。

下载端推荐纯BT下载软件:qBittorrent,Bitcomet,uTorrent ,其他下载软件请自行尝试。不支持吸血迅雷。

上传的附件:
最新回复 (0)