2012 美国 动作 BD-1080P 牛×[简繁英字幕].Bad.Ass.2012.1080p.BluRay.x265.10bit.DTS-SONYHD 7.12GB

Katt2092T 2024-07-10 16:53 19838


完整标题:牛×[简繁英字幕].Bad.Ass.2012.1080p.BluRay.x265.10bit.DTS-SONYHD 7.12GB




◎标  题 牛×
◎译  名 牛B / 牛13 / 牛掰 / 魂淡
◎片  名 Bad Ass
◎年  代 2012
◎产  地 美国
◎类  别 动作
◎语  言 英语
◎上映日期 2012-04-13(美国)
◎IMDb评分 5.4/10 (19397人评价)
◎IMDb链接 https://www.imdb.com/title/tt1928330/
◎豆瓣评分 5.7/10 (1302人评价)
◎豆瓣链接 https://movie.douban.com/subject/10345617/
◎片  长 88分钟
◎演  员 David A. Arnold David A. Arnold
      埃里克·贝特斯 Erik Betts
      丹尼·特雷霍 Danny Trejo
      乔伊芙·德雷克 Joyful Drake
      帕特里克·法比安 Patrick Fabian
      John Duffy John Duffy
      查尔斯·达顿 Charles S. Dutton
      吉莲·默瑞 Jillian Murray
      Norma Michaels

◎简  介
    《混蛋》中,丹尼·特乔饰演一名当年的越战老兵,退役之后他一直混得很是凄惨。直到在一场巴士事故中救下了一位老黑人,他成了当地的英雄。不过,好运并没有就此到来,他发现自己最好的朋友被谋杀而警察却并不打算过问此事……

##### MediaInfo ######
General
Unique ID : 55591224400713936908876174196602509925 (0x29D27AF9A6435F864945D2F3BE8B1A65)
Complete name : Bad.Ass.2012.1080p.BluRay.x265.10bit.DTS-SONYHD.mkv
Duration : 1 h 30 min
Overall bit rate : 11.3 Mb/s

Video
ID : 1
Format : HEVC
Format/Info : High Efficiency Video Coding
Format profile : Main 10@L5@Main
Codec ID : V_MPEGH/ISO/HEVC
Duration : 1 h 30 min
Bit rate : 9 693 kb/s
Width : 1 920 pixels
Height : 1 036 pixels
Display aspect ratio : 1.85:1
Frame rate mode : Constant
Frame rate : 23.976 (24000/1001) FPS
Color space : YUV
Chroma subsampling : 4:2:0
Bit depth : 10 bits
Bits/(Pixel*Frame) : 0.203
Stream size : 6.11 GiB (86%)
Writing library : x265 3.5+2-g2b25c9ba0+45:[Windows][GCC 10.2.0][64 bit] Yuuki 10bit+8bit+12bit
Encoding settings : rc=crf / crf=18.8300 / qcomp=0.60 / qpstep=4 / stats-write=0 / stats-read=0 / no-lossless / no-cu-lossless / aq-mode=3 / aq-strength=0.90 / cbqpoffs=0 / crqpoffs=0 / ipratio=1.40 / pbratio=1.30 / psy-rd=2.00 / psy-rdoq=0.00 / deblock=0:0 / ref=6 / limit-refs=1 / no-limit-modes / bframes=8 / b-adapt=2 / bframe-bias=0 / b-pyramid / b-intra / weightp / weightb / min-keyint=24 / max-keyint=240 / rc-lookahead=24 / gop-lookahead=0 / scenecut=40 / hist-scenecut=0 / radl=0 / max-cu-size=64 / min-cu-size=8 / me=3 / subme=7 / merange=48 / rdoq-level=0 / rd=4 / rdpenalty=0 / dynamic-rd=0.00 / no-rd-refine / ----- / cutree / sao / no-rect / no-amp / no-open-gop / wpp / no-pmode / no-pme / no-psnr / no-ssim / nr-intra=0 / nr-inter=0 / no-constrained-intra / no-strong-intra-smoothing / max-tu-size=32 / tu-inter-depth=1 / tu-intra-depth=1 / limit-tu=0 / qg-size=32 / qpmax=69 / qpmin=0 / ----- / cpuid=1049583 / frame-threads=5 / numa-pools=+ / log-level=2 / input-csp=1 / input-res=1920x1036 / interlace=0 / level-idc=0 / high-tier=1 / uhd-bd=0 / no-allow-non-conformance / repeat-headers / aud / no-hrd / info / hash=0 / no-temporal-layers / lookahead-slices=0 / no-splice / no-intra-refresh / no-ssim-rd / signhide / no-tskip / max-merge=3 / temporal-mvp / no-frame-dup / no-hme / no-analyze-src-pics / no-sao-non-deblock / selective-sao=4 / early-skip / rskip / no-fast-intra / no-tskip-fast / no-splitrd-skip / zone-count=0 / no-strict-cbr / no-rc-grain / no-const-vbv / sar=0 / overscan=0 / videoformat=5 / range=0 / colorprim=2 / transfer=2 / colormatrix=2 / chromaloc=0 / display-window=0 / cll=0,0 / min-luma=0 / max-luma=1023 / log2-max-poc-lsb=8 / vui-timing-info / vui-hrd-info / slices=1 / no-opt-qp-pps / no-opt-ref-list-length-pps / no-multi-pass-opt-rps / scenecut-bias=0.05 / hist-threshold=0.03 / no-opt-cu-delta-qp / no-aq-motion / no-hdr10 / no-hdr10-opt / no-dhdr10-opt / no-idr-recovery-sei / analysis-reuse-level=0 / analysis-save-reuse-level=0 / analysis-load-reuse-level=0 / scale-factor=0 / refine-intra=0 / refine-inter=0 / refine-mv=1 / refine-ctu-distortion=0 / no-limit-sao / ctu-info=0 / no-lowpass-dct / refine-analysis-type=0 / copy-pic=1 / max-ausize-factor=1.0 / no-dynamic-refine / no-single-sei / no-hevc-aq / no-svt / no-field / qp-adaptation-range=1.00 / scenecut-aware-qp=0conformance-window-offsets / right=0 / bottom=0 / decoder-max-rate=0 / no-vbv-live-multi-pass
Default : Yes
Forced : No

Audio
ID : 2
ID in the original source medium : 4352 (0x1100)
Format : DTS
Format/Info : Digital Theater Systems
Codec ID : A_DTS
Duration : 1 h 30 min
Bit rate mode : Constant
Bit rate : 1 509 kb/s
Channel(s) : 6 channels
Channel layout : C L R Ls Rs LFE
Sampling rate : 48.0 kHz
Frame rate : 93.750 FPS (512 SPF)
Bit depth : 24 bits
Compression mode : Lossy
Stream size : 973 MiB (13%)
Title : English
Language : English
Default : Yes
Forced : No
Original source medium : Blu-ray

Text #1
ID : 3
ID in the original source medium : 4611 (0x1203)
Format : PGS
Muxing mode : zlib
Codec ID : S_HDMV/PGS
Codec ID/Info : Picture based subtitle format used on BDs/HD-DVDs
Duration : 1 h 24 min
Bit rate : 53.7 kb/s
Frame rate : 0.426 FPS
Count of elements : 2163
Stream size : 32.5 MiB (0%)
Title : chs&eng
Language : Chinese
Default : Yes
Forced : No
Original source medium : Blu-ray

Text #2
ID : 4
ID in the original source medium : 4612 (0x1204)
Format : PGS
Muxing mode : zlib
Codec ID : S_HDMV/PGS
Codec ID/Info : Picture based subtitle format used on BDs/HD-DVDs
Duration : 1 h 24 min
Bit rate : 53.9 kb/s
Frame rate : 0.426 FPS
Count of elements : 2163
Stream size : 32.6 MiB (0%)
Title : cht&eng
Language : Chinese
Default : No
Forced : No
Original source medium : Blu-ray

Text #3
ID : 5
ID in the original source medium : 4613 (0x1205)
Format : PGS
Muxing mode : zlib
Codec ID : S_HDMV/PGS
Codec ID/Info : Picture based subtitle format used on BDs/HD-DVDs
Duration : 1 h 24 min
Bit rate : 31.8 kb/s
Frame rate : 0.426 FPS
Count of elements : 2163
Stream size : 19.3 MiB (0%)
Title : chs
Language : Chinese
Default : No
Forced : No
Original source medium : Blu-ray

Text #4
ID : 6
ID in the original source medium : 4614 (0x1206)
Format : PGS
Muxing mode : zlib
Codec ID : S_HDMV/PGS
Codec ID/Info : Picture based subtitle format used on BDs/HD-DVDs
Duration : 1 h 24 min
Bit rate : 32.0 kb/s
Frame rate : 0.426 FPS
Count of elements : 2163
Stream size : 19.4 MiB (0%)
Title : cht
Language : Chinese
Default : No
Forced : No
Original source medium : Blu-ray

Text #5
ID : 7
ID in the original source medium : 4608 (0x1200)
Format : PGS
Muxing mode : zlib
Codec ID : S_HDMV/PGS
Codec ID/Info : Picture based subtitle format used on BDs/HD-DVDs
Duration : 1 h 30 min
Bit rate : 42.7 kb/s
Frame rate : 0.406 FPS
Count of elements : 2198
Stream size : 27.5 MiB (0%)
Title : eng
Language : English
Default : No
Forced : No
Original source medium : Blu-ray

Menu
00:00:00.000 : en:Chapter 01
00:03:11.357 : en:Chapter 02
00:07:42.211 : en:Chapter 03
00:11:22.890 : en:Chapter 04
00:15:38.520 : en:Chapter 05
00:19:12.526 : en:Chapter 06
00:22:29.765 : en:Chapter 07
00:27:41.493 : en:Chapter 08
00:31:33.641 : en:Chapter 09
00:34:48.836 : en:Chapter 10
00:37:45.513 : en:Chapter 11
00:41:32.531 : en:Chapter 12
00:44:16.362 : en:Chapter 13
00:46:50.057 : en:Chapter 14
00:49:41.144 : en:Chapter 15
00:53:28.747 : en:Chapter 16
00:55:59.481 : en:Chapter 17
00:58:28.296 : en:Chapter 18
01:02:08.141 : en:Chapter 19
01:05:23.711 : en:Chapter 20
01:07:36.969 : en:Chapter 21
01:12:57.873 : en:Chapter 22
01:18:11.645 : en:Chapter 23
01:24:42.660 : en:Chapter 24


部分资源为软字幕,移动端推荐播放器:MxPlayer,nPlayer,infuse ,其他播放器请自行尝试。

部分资源为软字幕,电脑端推荐播放器:PotPlayer,完美解码,KMPLAYER,其他播放器请自行尝试。

下载端推荐纯BT下载软件:qBittorrent,Bitcomet,uTorrent ,其他下载软件请自行尝试。不支持吸血迅雷。

上传的附件:
最新回复 (0)