更 早 美国 剧情 BD-4K 罗马假日[HDR/杜比视界双版本][国英多音轨/简繁英双语特效字幕].1953.TWN.BluRay.2160p.DTS-HDMA2.0.DoVi.HDR.x265.10bit-Dream

RAY20920M 2024-07-10 16:54 10558


完整标题:罗马假日[HDR/杜比视界双版本][国英多音轨/简繁英双语特效字幕].1953.TWN.BluRay.2160p.DTS-HDMA2.0.DoVi.HDR.x265.10bit-DreamHD 23.25GB




◎标  题 罗马假日
◎译  名 金枝玉叶(港) / 罗马假期(台) / 罗马的假日
◎片  名 Roman Holiday
◎年  代 1953
◎产  地 美国
◎类  别 剧情 / 喜剧 / 爱情
◎语  言 英语 / 意大利语 / 德语
◎上映日期 1953-08-20(威尼斯电影节) / 1953-09-02(美国)
◎IMDb评分 8/10 (145455人评价)
◎IMDb链接 https://www.imdb.com/title/tt0046250/
◎豆瓣评分 9.1/10 (966595人评价)
◎豆瓣链接 https://movie.douban.com/subject/1293839/
◎片  长 118分钟
◎导  演 威廉·惠勒 William Wyler
◎编  剧 达尔顿·特朗勃 Dalton Trumbo
      伊安·麦克莱伦·亨特 Ian McLellan Hunter
      约翰·戴顿 John Dighton
◎演  员 奥黛丽·赫本 Audrey Hepburn
      格利高里·派克 Gregory Peck
      埃迪·艾伯特 Eddie Albert
      哈特利·鲍尔 Hartley Power
      哈考特·威廉姆斯 Harcourt Williams
      玛格丽特·罗林斯 Margaret Rawlings
      托里奥·卡米纳提 Tullio Carminati
      保罗·卡利尼 Paolo Carlini
      克劳迪奥·埃尔梅利 Claudio Ermelli
      保拉·布鲁布尼 Paola Borboni
      里佐·弗雷多里佐 Alfredo Rizzo
      劳拉·索拉里 Laura Solari
      Gorella Gori Gorella Gori
      Armando Annuale Armando Annuale
      毛里齐奥·阿雷纳 Maurizio Arena
      Silvio Bagolini Silvio Bagolini
      Gildo Bocci Gildo Bocci
      弗兰科·科尔萨罗 Franco Corsaro
      John Cortay John Cortay
      Vittoria Crispo Vittoria Crispo
      Sidney Gordon Sidney Gordon
      Luigi Moneta Luigi Moneta
      Piero Pastore Piero Pastore
      米莫·波利 Mimmo Poli
      Carlo Rizzo Carlo Rizzo
      Gianna Segale Gianna Segale
      阿梅代奥·特里利 Amedeo Trilli
      海伦·塔布斯 Helen Tubbs
      马科·图里 Marco Tulli
      Joop van Hulzen Joop van Hulzen
      凯瑟琳·惠勒 Catherine Wyler
      Judy Wyler Judy Wyler
      陆建艺 Jianyi Lu
      金毅 Yi Jin

◎简  介
    欧洲某国的安妮公主(奥黛丽·赫本 Audrey Hepburn 饰)到访罗马,国务烦身,但她又厌倦繁文缛节。一天晚上,身心俱疲的她偷偷来到民间欣赏夜景,巧遇报社记者乔(格里高利·派克 Gregory Peck 饰)。二人把手同游,相当快乐。公主更是到乔的家中作客并在那过夜。   不料乔无意中发现了公主的真实身份,他决定炮制一个独家新闻,于是乔和朋友、摄影师欧文(埃迪·艾伯特 Eddie Albert 饰)一起带公主同游罗马,并且偷拍了公主的很多生活照。然而,在接下来与公主的相处中,乔不知不觉恋上了公主。为了保护公主的形象,乔只能忍痛抛弃功成名就的良机,将照片送予了公主。   安妮公主在经历了罗马一日假期后,反而体验了自己对国家的责任,毅然返回了大使馆,为了本身的责任而果断抛弃了爱情。

##### MediaInfo ######
General
Unique ID : 72487433678327801760403708786312764911 (0x36889268C73428BADCFC1B0A6B605DEF)
Complete name : Roman Holiday 1953 TWN BluRay 2160p DTS-HDMA2.0 DoVi HDR x265 10bit-DreamHD.mkv
Duration : 1 h 58 min
Overall bit rate mode : Variable
Overall bit rate : 28.2 Mb/s

Video
ID : 1
Format : HEVC
Format/Info : High Efficiency Video Coding
Format profile : Main 10@L5.1@Main
HDR format : Dolby Vision, Version 1.0, dvhe.08.06, BL+RPU, HDR10 compatible / SMPTE ST 2086, HDR10 compatible / SMPTE ST 2086, HDR10 compatible
Codec ID : V_MPEGH/ISO/HEVC
Duration : 1 h 58 min
Bit rate : 24.9 Mb/s
Width : 2 960 pixels
Height : 2 160 pixels
Display aspect ratio : 1.370
Frame rate mode : Constant
Frame rate : 23.976 (24000/1001) FPS
Color space : YUV
Chroma subsampling : 4:2:0 (Type 2)
Bit depth : 10 bits
Bits/(Pixel*Frame) : 0.163
Stream size : 20.6 GiB (89%)
Title : 9b653fb6f3ad392fdd1ee9c4c4903a80b0ef8215e1e1a21a202badd568f8d2b6765f324d2742c4c9b33a0798792d78b2d1d8f1cbccd3f80e8d16a62aeeb328ff
Writing library : x265 3.5+1-f0c1022b6:[Windows][GCC 13.2.0][64 bit] 10bit
Encoding settings : cpuid=1111039 / frame-threads=4 / numa-pools=16 / wpp / no-pmode / no-pme / no-psnr / no-ssim / log-level=2 / input-csp=1 / input-res=2960x2160 / interlace=0 / total-frames=0 / level-idc=51 / high-tier=0 / uhd-bd=0 / ref=4 / no-allow-non-conformance / repeat-headers / annexb / aud / no-eob / no-eos / hrd / info / hash=0 / temporal-layers=0 / open-gop / min-keyint=24 / keyint=240 / gop-lookahead=0 / bframes=4 / b-adapt=2 / b-pyramid / bframe-bias=0 / rc-lookahead=25 / lookahead-slices=4 / scenecut=40 / no-hist-scenecut / radl=0 / no-splice / no-intra-refresh / ctu=64 / min-cu-size=8 / rect / no-amp / max-tu-size=32 / tu-inter-depth=1 / tu-intra-depth=1 / limit-tu=0 / rdoq-level=2 / dynamic-rd=0.00 / no-ssim-rd / signhide / no-tskip / nr-intra=0 / nr-inter=0 / no-constrained-intra / strong-intra-smoothing / max-merge=3 / limit-refs=3 / limit-modes / me=3 / subme=3 / merange=57 / temporal-mvp / no-frame-dup / no-hme / weightp / no-weightb / no-analyze-src-pics / deblock=0:0 / sao / no-sao-non-deblock / rd=4 / selective-sao=4 / no-early-skip / rskip / no-fast-intra / no-tskip-fast / no-cu-lossless / no-b-intra / no-splitrd-skip / rdpenalty=0 / psy-rd=2.00 / psy-rdoq=1.00 / no-rd-refine / no-lossless / cbqpoffs=0 / crqpoffs=0 / rc=crf / crf=13.0 / qcomp=0.60 / qpstep=4 / stats-write=0 / stats-read=0 / vbv-maxrate=25600 / vbv-bufsize=25600 / vbv-init=0.9 / min-vbv-fullness=50.0 / max-vbv-fullness=80.0 / crf-max=0.0 / crf-min=0.0 / ipratio=1.40 / pbratio=1.30 / aq-mode=2 / aq-strength=1.00 / cutree / zone-count=0 / no-strict-cbr / qg-size=32 / no-rc-grain / qpmax=69 / qpmin=0 / no-const-vbv / sar=1 / overscan=0 / videoformat=5 / range=0 / colorprim=9 / transfer=16 / colormatrix=9 / chromaloc=1 / chromaloc-top=2 / chromaloc-bottom=2 / display-window=0 / master-display=G(13250,34500)B(7500,3000)R(34000,16000)WP(15635,16450)L(10000000,1) / cll=316,117 / min-luma=0 / max-luma=1023 / log2-max-poc-lsb=8 / vui-timing-info / vui-hrd-info / slices=1 / no-opt-qp-pps / no-opt-ref-list-length-pps / no-multi-pass-opt-rps / scenecut-bias=0.05 / no-opt-cu-delta-qp / no-aq-motion / hdr10 / hdr10-opt / no-dhdr10-opt / no-idr-recovery-sei / analysis-reuse-level=0 / analysis-save-reuse-level=0 / analysis-load-reuse-level=0 / scale-factor=0 / refine-intra=0 / refine-inter=0 / refine-mv=1 / refine-ctu-distortion=0 / no-limit-sao / ctu-info=0 / no-lowpass-dct / refine-analysis-type=0 / copy-pic=1 / max-ausize-factor=1.0 / no-dynamic-refine / no-single-sei / no-hevc-aq / no-svt / no-field / qp-adaptation-range=1.00 / scenecut-aware-qp=0conformance-window-offsets / right=0 / bottom=0 / decoder-max-rate=0 / no-vbv-live-multi-pass / no-mcstf / no-sbrc
Default : Yes
Forced : No
Color range : Limited
Color primaries : BT.2020
Transfer characteristics : PQ
Matrix coefficients : BT.2020 non-constant
Mastering display color primaries : Display P3
Mastering display luminance : min: 0.0001 cd/m2, max: 1000 cd/m2
Maximum Content Light Level : 316
MaxCLL_Original : 316 cd/m2
Maximum Frame-Average Light Level : 117
MaxFALL_Original : 117 cd/m2

Audio #1
ID : 2
Format : DTS XLL
Format/Info : Digital Theater Systems
Commercial name : DTS-HD Master Audio
Codec ID : A_DTS
Duration : 1 h 58 min
Bit rate mode : Variable
Bit rate : 1 769 kb/s
Channel(s) : 2 channels
Channel layout : L R
Sampling rate : 48.0 kHz
Frame rate : 93.750 FPS (512 SPF)
Bit depth : 24 bits
Compression mode : Lossless
Stream size : 1.46 GiB (6%)
Language : English
Default : Yes
Forced : No

Audio #2
ID : 3
Format : MLP FBA
Format/Info : Meridian Lossless Packing FBA
Commercial name : Dolby TrueHD
Codec ID : A_TRUEHD
Duration : 1 h 58 min
Bit rate mode : Variable
Bit rate : 639 kb/s
Maximum bit rate : 1 020 kb/s
Channel(s) : 2 channels
Channel layout : L R
Sampling rate : 48.0 kHz
Frame rate : 1 200.000 FPS (40 SPF)
Compression mode : Lossless
Stream size : 540 MiB (2%)
Language : English
Default : No
Forced : No

Audio #3
ID : 4
Format : AC-3
Format/Info : Audio Coding 3
Commercial name : Dolby Digital
Codec ID : A_AC3
Duration : 1 h 58 min
Bit rate mode : Constant
Bit rate : 224 kb/s
Channel(s) : 2 channels
Channel layout : L R
Sampling rate : 48.0 kHz
Frame rate : 31.250 FPS (1536 SPF)
Compression mode : Lossy
Stream size : 189 MiB (1%)
Title : 央视长译国配
Language : Chinese
Service kind : Complete Main
Default : No
Forced : No

Audio #4
ID : 5
Format : AC-3
Format/Info : Audio Coding 3
Commercial name : Dolby Digital
Codec ID : A_AC3
Duration : 1 h 58 min
Bit rate mode : Constant
Bit rate : 192 kb/s
Channel(s) : 2 channels
Channel layout : L R
Sampling rate : 48.0 kHz
Frame rate : 31.250 FPS (1536 SPF)
Compression mode : Lossy
Stream size : 162 MiB (1%)
Title : 博颖国配
Language : Chinese
Service kind : Complete Main
Default : No
Forced : No

Text #1
ID : 6
Format : PGS
Codec ID : S_HDMV/PGS
Codec ID/Info : Picture based subtitle format used on BDs/HD-DVDs
Duration : 1 h 53 min
Bit rate : 24.1 kb/s
Frame rate : 0.349 FPS
Count of elements : 2376
Stream size : 19.5 MiB (0%)
Language : English
Default : No
Forced : No

Text #2
ID : 7
Format : PGS
Codec ID : S_HDMV/PGS
Codec ID/Info : Picture based subtitle format used on BDs/HD-DVDs
Duration : 1 h 58 min
Bit rate : 72.8 kb/s
Frame rate : 0.475 FPS
Count of elements : 3365
Stream size : 61.5 MiB (0%)
Title : 央视长译简体特效
Language : Chinese
Default : No
Forced : No

Text #3
ID : 8
Format : PGS
Codec ID : S_HDMV/PGS
Codec ID/Info : Picture based subtitle format used on BDs/HD-DVDs
Duration : 1 h 58 min
Bit rate : 74.6 kb/s
Frame rate : 0.475 FPS
Count of elements : 3365
Stream size : 63.0 MiB (0%)
Title : 央视长译繁體特效
Language : Chinese
Default : No
Forced : No

Text #4
ID : 9
Format : PGS
Codec ID : S_HDMV/PGS
Codec ID/Info : Picture based subtitle format used on BDs/HD-DVDs
Duration : 1 h 58 min
Bit rate : 84.4 kb/s
Frame rate : 0.453 FPS
Count of elements : 3212
Stream size : 71.3 MiB (0%)
Title : 简英双语特效
Language : Chinese
Default : No
Forced : No

Text #5
ID : 10
Format : PGS
Codec ID : S_HDMV/PGS
Codec ID/Info : Picture based subtitle format used on BDs/HD-DVDs
Duration : 1 h 58 min
Bit rate : 86.3 kb/s
Frame rate : 0.453 FPS
Count of elements : 3212
Stream size : 72.9 MiB (0%)
Title : 繁英双语特效
Language : Chinese
Default : No
Forced : No

Menu
00:00:00.000 : :Chapter 1
00:01:39.433 : :Chapter 2
00:07:19.272 : :Chapter 3
00:13:25.763 : :Chapter 4
00:18:33.029 : :Chapter 5
00:24:26.215 : :Chapter 6
00:30:43.800 : :Chapter 7
00:40:13.369 : :Chapter 8
00:49:43.731 : :Chapter 9
00:55:03.550 : :Chapter 10
01:01:12.377 : :Chapter 11
01:05:21.459 : :Chapter 12
01:12:51.242 : :Chapter 13
01:17:18.342 : :Chapter 14
01:22:20.978 : :Chapter 15
01:32:08.648 : :Chapter 16
01:40:08.628 : :Chapter 17
01:48:10.150 : :Chapter 18


部分资源为软字幕,移动端推荐播放器:MxPlayer,nPlayer,infuse ,其他播放器请自行尝试。

部分资源为软字幕,电脑端推荐播放器:PotPlayer,完美解码,KMPLAYER,其他播放器请自行尝试。

下载端推荐纯BT下载软件:qBittorrent,Bitcomet,uTorrent ,其他下载软件请自行尝试。不支持吸血迅雷。

上传的附件:
最新回复 (1)
  • jiaozi188 11天前
    0 2
    你好,是彩色版的吗