2022 法国 纪录 BD-1080P 人体结构[简繁英字幕].The.Fabric.of.the.Human.Body.2022.1080p.BluRay.x265.10bit.DTS-HD.MA.5.1-ParkHD 8.24GB

Katt2092T 2024-07-10 16:54 14319


完整标题:人体结构[简繁英字幕].The.Fabric.of.the.Human.Body.2022.1080p.BluRay.x265.10bit.DTS-HD.MA.5.1-ParkHD 8.24GB




◎标  题 人体结构
◎译  名 人体万花胴(港) / The Fabric of the Human Body
◎片  名 De Humani Corporis Fabrica
◎年  代 2022
◎产  地 法国 / 瑞士 / 美国
◎类  别 纪录片
◎语  言 法语
◎上映日期 2022-05-23(戛纳电影节)
◎IMDb评分 7.2/10 (585人评价)
◎IMDb链接 https://www.imdb.com/title/tt19783948/
◎豆瓣评分 7.3/10 (1223人评价)
◎豆瓣链接 https://movie.douban.com/subject/35168406/
◎片  长 115分钟
◎导  演 吕西安·卡斯坦因-泰勒 Lucien Castaing-Taylor
       维瑞娜·帕拉韦尔 Verena Paravel
◎编  剧 吕西安·卡斯坦因-泰勒 Lucien Castaing-Taylor
       维瑞娜·帕拉韦尔 Verena Paravel

◎简  介
    解剖学发明以来,人体奥秘开始为世人所知所见。然而,大家习惯的始终是那副最表面的臭皮囊,或留恋或厌倦,或拥抱或憎恶。假如能深入体腔,即时观察微肌细理,体液流动,可会了悟个中奥妙,那欲肉不为肉所欲的真义?得到医院前线及技术人员协助,韦莲娜柏丽芙与路西安卡斯当泰来再现了内窥和 微创手术的影像,辅以病人和医护的生活点滴,让作为关怀、痛苦、希望和被宰制场所的身体,成了光影景观的主角。血肉不再模糊的结果,可会对人文多一份凝视?

##### MediaInfo ######
General
Unique ID                                : 309603923026135612925852430891018934818 (0xE8EB8BEFA76B4935CD75577F4894DA22)
Complete name                            : The.Fabric.of.the.Human.Body.2022.1080p.BluRay.x265.10bit.DTS-HD.MA.5.1-ParkHD.mkv
Duration                                 : 2 h 2 min
Overall bit rate mode                    : Variable
Overall bit rate                         : 9 605 kb/s

Video
ID                                       : 1
Format                                   : HEVC
Format/Info                              : High Efficiency Video Coding
Format profile                           : Main 10@L5.1@High
Codec ID                                 : V_MPEGH/ISO/HEVC
Duration                                 : 2 h 2 min
Bit rate                                 : 7 660 kb/s
Width                                    : 1 920 pixels
Height                                   : 1 080 pixels
Display aspect ratio                     : 16:9
Frame rate mode                          : Constant
Frame rate                               : 23.976 (24000/1001) FPS
Color space                              : YUV
Chroma subsampling                       : 4:2:0
Bit depth                                : 10 bits
Bits/(Pixel*Frame)                       : 0.154
Stream size                              : 6.57 GiB (80%)
Writing library                          : x265 3.5+2-g2b25c9ba0+45:[Windows][GCC 10.2.0][64 bit] Yuuki 10bit+8bit+12bit
Encoding settings                        : rc=crf / crf=25.5600 / qcomp=0.65 / qpstep=4 / stats-write=0 / stats-read=0 / vbv-maxrate=160000 / vbv-bufsize=160000 / vbv-init=0.9 / min-vbv-fullness=50.0 / max-vbv-fullness=80.0 / crf-max=0.0 / crf-min=0.0 / no-lossless / no-cu-lossless / aq-mode=3 / aq-strength=0.90 / cbqpoffs=-2 / crqpoffs=-2 / ipratio=1.40 / pbratio=1.20 / psy-rd=2.00 / psy-rdoq=1.00 / deblock=-1:-1 / ref=4 / limit-refs=0 / no-limit-modes / bframes=6 / b-adapt=2 / bframe-bias=0 / b-pyramid / b-intra / weightp / weightb / min-keyint=1 / max-keyint=480 / rc-lookahead=60 / gop-lookahead=0 / scenecut=40 / hist-scenecut=0 / radl=0 / max-cu-size=32 / min-cu-size=8 / me=3 / subme=7 / merange=64 / rdoq-level=2 / rd=4 / rdpenalty=2 / dynamic-rd=0.00 / no-rd-refine / ----- / no-cutree / no-sao / rect / no-amp / no-open-gop / wpp / no-pmode / no-pme / no-psnr / no-ssim / nr-intra=0 / nr-inter=0 / no-constrained-intra / no-strong-intra-smoothing / max-tu-size=32 / tu-inter-depth=3 / tu-intra-depth=3 / limit-tu=4 / qg-size=8 / qpmax=69 / qpmin=0 / ----- / cpuid=1111039 / frame-threads=5 / numa-pools=32 / log-level=2 / input-csp=1 / input-res=1920x1080 / interlace=0 / level-idc=51 / high-tier=1 / uhd-bd=0 / no-allow-non-conformance / no-repeat-headers / no-aud / no-hrd / info / hash=0 / no-temporal-layers / lookahead-slices=0 / no-splice / no-intra-refresh / no-ssim-rd / signhide / no-tskip / max-merge=3 / temporal-mvp / no-frame-dup / no-hme / no-analyze-src-pics / no-sao-non-deblock / selective-sao=0 / no-early-skip / rskip / no-fast-intra / no-tskip-fast / no-splitrd-skip / zone-count=0 / no-strict-cbr / no-rc-grain / no-const-vbv / sar=0 / overscan=0 / videoformat=5 / range=0 / colorprim=2 / transfer=2 / colormatrix=2 / chromaloc=0 / display-window=0 / cll=0,0 / min-luma=0 / max-luma=1023 / log2-max-poc-lsb=8 / vui-timing-info / vui-hrd-info / slices=1 / no-opt-qp-pps / no-opt-ref-list-length-pps / no-multi-pass-opt-rps / scenecut-bias=0.05 / hist-threshold=0.03 / no-opt-cu-delta-qp / no-aq-motion / no-hdr10 / no-hdr10-opt / no-dhdr10-opt / no-idr-recovery-sei / analysis-reuse-level=0 / analysis-save-reuse-level=0 / analysis-load-reuse-level=0 / scale-factor=0 / refine-intra=0 / refine-inter=0 / refine-mv=1 / refine-ctu-distortion=0 / no-limit-sao / ctu-info=0 / no-lowpass-dct / refine-analysis-type=0 / copy-pic=1 / max-ausize-factor=1.0 / no-dynamic-refine / no-single-sei / no-hevc-aq / no-svt / no-field / qp-adaptation-range=1.00 / scenecut-aware-qp=0conformance-window-offsets / right=0 / bottom=0 / decoder-max-rate=0 / no-vbv-live-multi-pass
Default                                  : Yes
Forced                                   : No

Audio
ID                                       : 2
ID in the original source medium         : 4352 (0x1100)
Format                                   : DTS XLL
Format/Info                              : Digital Theater Systems
Commercial name                          : DTS-HD Master Audio
Codec ID                                 : A_DTS
Duration                                 : 2 h 2 min
Bit rate mode                            : Variable
Bit rate                                 : 1 920 kb/s
Channel(s)                               : 6 channels
Channel layout                           : C L R Ls Rs LFE
Sampling rate                            : 48.0 kHz
Frame rate                               : 93.750 FPS (512 SPF)
Bit depth                                : 16 bits
Compression mode                         : Lossless
Stream size                              : 1.65 GiB (20%)
Title                                    : English
Language                                 : English
Default                                  : Yes
Forced                                   : No
Original source medium                   : Blu-ray

Text #1
ID                                       : 3
ID in the original source medium         : 4609 (0x1201)
Format                                   : PGS
Muxing mode                              : zlib
Codec ID                                 : S_HDMV/PGS
Codec ID/Info                            : Picture based subtitle format used on BDs/HD-DVDs
Duration                                 : 1 h 49 min
Bit rate                                 : 17.5 kb/s
Frame rate                               : 0.307 FPS
Count of elements                        : 2020
Stream size                              : 13.7 MiB (0%)
Title                                    : chs
Language                                 : Chinese
Default                                  : Yes
Forced                                   : No
Original source medium                   : Blu-ray

Text #2
ID                                       : 4
ID in the original source medium         : 4610 (0x1202)
Format                                   : PGS
Muxing mode                              : zlib
Codec ID                                 : S_HDMV/PGS
Codec ID/Info                            : Picture based subtitle format used on BDs/HD-DVDs
Duration                                 : 1 h 49 min
Bit rate                                 : 17.7 kb/s
Frame rate                               : 0.307 FPS
Count of elements                        : 2020
Stream size                              : 13.8 MiB (0%)
Title                                    : cht
Language                                 : Chinese
Default                                  : No
Forced                                   : No
Original source medium                   : Blu-ray

Text #3
ID                                       : 5
ID in the original source medium         : 4608 (0x1200)
Format                                   : PGS
Muxing mode                              : zlib
Codec ID                                 : S_HDMV/PGS
Codec ID/Info                            : Picture based subtitle format used on BDs/HD-DVDs
Duration                                 : 1 h 46 min
Bit rate                                 : 19.6 kb/s
Frame rate                               : 0.324 FPS
Count of elements                        : 2082
Stream size                              : 15.0 MiB (0%)
Title                                    : eng
Language                                 : English
Default                                  : No
Forced                                   : No
Original source medium                   : Blu-ray

Menu
00:00:00.000                             : en:Chapter 01
00:11:17.259                             : en:Chapter 02
00:25:38.411                             : en:Chapter 03
00:36:55.129                             : en:Chapter 04
00:47:29.930                             : en:Chapter 05
00:56:38.520                             : en:Chapter 06
01:08:50.376                             : en:Chapter 07
01:19:06.366                             : en:Chapter 08
01:25:37.423                             : en:Chapter 09
01:36:21.192                             : en:Chapter 10
01:48:08.273                             : en:Chapter 11
01:58:56.921                             : en:Chapter 12


部分资源为软字幕,移动端推荐播放器:MxPlayer,nPlayer,infuse ,其他播放器请自行尝试。

部分资源为软字幕,电脑端推荐播放器:PotPlayer,完美解码,KMPLAYER,其他播放器请自行尝试。

下载端推荐纯BT下载软件:qBittorrent,Bitcomet,uTorrent ,其他下载软件请自行尝试。不支持吸血迅雷。

最后于 11天前 被Eddie wang编辑 ,原因:
上传的附件:
最新回复 (0)