2024 印度 喜剧 WEB-1080P 狂野分手团[简繁英字幕].Wild.Wild.Punjab.2024.1080p.NF.WEB-DL.x264.DDP5.1.Atmos-SONYHD 4.42GB

Katt2092T 2024-07-10 16:55 11820


完整标题:狂野分手团[简繁英字幕].Wild.Wild.Punjab.2024.1080p.NF.WEB-DL.x264.DDP5.1.Atmos-SONYHD 4.42GB




◎标  题 狂野分手团
◎片  名 Wild Wild Punjab
◎年  代 2024
◎产  地 印度
◎类  别 喜剧 / 爱情
◎语  言 印地语
◎上映日期 2024-07-10(印度)
◎IMDb链接 https://www.imdb.com/title/tt31514262/
◎豆瓣链接 https://movie.douban.com/subject/36953635/
◎片  长 109分钟
◎编  剧 卢夫·兰扬 Luv Ranjan
◎演  员 拉杰什·沙玛 Rajesh Sharma
      瓦伦·沙玛 Varun Sharma
      桑尼·辛格·尼贾尔 Sunny Singh Nijjar
      曼吉特·辛格 Manjit Singh
      伊希塔·拉吉 Ishita Raj

◎简  介
    四名好友开车穿越旁遮普,以帮助其中一人忘掉前女友,但他们很快就陷入了前所未有的尴尬困境

##### MediaInfo ######
General
Unique ID : 137495993269289084381706470846955562165 (0x6770C3DB6F4D83DCA6DCEB95FA48A4B5)
Complete name : Wild.Wild.Punjab.2024.1080p.NF.WEB-DL.x264.DDP5.1.Atmos-SONYHD.mkv
Duration : 1 h 50 min
Overall bit rate mode : Variable
Overall bit rate : 5 724 kb/s

Video
ID : 1
Format : AVC
Format/Info : Advanced Video Codec
Format profile : Main@L4
Format settings : CABAC / 3 Ref Frames
Format settings, CABAC : Yes
Format settings, Reference frames : 3 frames
Codec ID : V_MPEG4/ISO/AVC
Duration : 1 h 50 min
Bit rate mode : Variable
Bit rate : 5 000 kb/s
Maximum bit rate : 7 500 kb/s
Width : 1 920 pixels
Height : 1 080 pixels
Display aspect ratio : 16:9
Frame rate mode : Constant
Frame rate : 24.000 FPS
Color space : YUV
Chroma subsampling : 4:2:0
Bit depth : 8 bits
Scan type : Progressive
Bits/(Pixel*Frame) : 0.100
Stream size : 3.83 GiB (87%)
Writing library : x264 core 148 r2727 7d026e8
Encoding settings : cabac=1 / ref=3 / deblock=1:0:0 / analyse=0x1:0x111 / me=umh / subme=10 / psy=1 / psy_rd=1.00:0.00 / mixed_ref=1 / me_range=24 / chroma_me=1 / trellis=2 / 8x8dct=0 / cqm=0 / deadzone=21,11 / fast_pskip=1 / chroma_qp_offset=-2 / threads=6 / lookahead_threads=1 / sliced_threads=0 / nr=0 / decimate=1 / interlaced=0 / bluray_compat=0 / stitchable=1 / constrained_intra=0 / bframes=2 / b_pyramid=0 / b_adapt=2 / b_bias=0 / direct=3 / weightb=1 / open_gop=0 / weightp=2 / keyint=240 / keyint_min=121 / scenecut=0 / intra_refresh=0 / rc_lookahead=48 / rc=2pass / mbtree=1 / bitrate=5000 / ratetol=1.0 / qcomp=0.50 / qpmin=6 / qpmax=51 / qpstep=4 / cplxblur=20.0 / qblur=0.5 / vbv_maxrate=7500 / vbv_bufsize=10000 / nal_hrd=vbr / filler=0 / ip_ratio=1.40 / aq=1:1.00
Default : Yes
Forced : No

Audio
ID : 2
Format : E-AC-3 JOC
Format/Info : Enhanced AC-3 with Joint Object Coding
Commercial name : Dolby Digital Plus with Dolby Atmos
Codec ID : A_EAC3
Duration : 1 h 50 min
Bit rate mode : Constant
Bit rate : 768 kb/s
Channel(s) : 6 channels
Channel layout : L R C LFE Ls Rs
Sampling rate : 48.0 kHz
Frame rate : 31.250 FPS (1536 SPF)
Compression mode : Lossy
Stream size : 607 MiB (13%)
Language : Hindi
Service kind : Complete Main
Default : Yes
Forced : No
Complexity index : 16
Number of dynamic objects : 15
Bed channel count : 1 channel
Bed channel configuration : LFE

Text #1
ID : 3
Format : UTF-8
Codec ID : S_TEXT/UTF8
Codec ID/Info : UTF-8 Plain Text
Duration : 1 h 48 min
Bit rate : 112 b/s
Frame rate : 0.251 FPS
Count of elements : 1630
Stream size : 89.3 KiB (0%)
Language : Arabic
Default : No
Forced : No

Text #2
ID : 4
Format : UTF-8
Codec ID : S_TEXT/UTF8
Codec ID/Info : UTF-8 Plain Text
Duration : 1 h 48 min
Bit rate : 59 b/s
Frame rate : 0.250 FPS
Count of elements : 1624
Stream size : 47.0 KiB (0%)
Language : Czech
Default : No
Forced : No

Text #3
ID : 5
Format : UTF-8
Codec ID : S_TEXT/UTF8
Codec ID/Info : UTF-8 Plain Text
Duration : 1 h 48 min
Bit rate : 58 b/s
Frame rate : 0.220 FPS
Count of elements : 1427
Stream size : 46.1 KiB (0%)
Language : Danish
Default : No
Forced : No

Text #4
ID : 6
Format : UTF-8
Codec ID : S_TEXT/UTF8
Codec ID/Info : UTF-8 Plain Text
Duration : 1 h 48 min
Bit rate : 62 b/s
Frame rate : 0.243 FPS
Count of elements : 1578
Stream size : 49.3 KiB (0%)
Language : German
Default : No
Forced : No

Text #5
ID : 7
Format : UTF-8
Codec ID : S_TEXT/UTF8
Codec ID/Info : UTF-8 Plain Text
Duration : 1 h 41 min
Bit rate : 84 b/s
Frame rate : 0.328 FPS
Count of elements : 1986
Stream size : 62.7 KiB (0%)
Language : English
Default : No
Forced : No

Text #6
ID : 8
Format : UTF-8
Codec ID : S_TEXT/UTF8
Codec ID/Info : UTF-8 Plain Text
Duration : 1 h 41 min
Bit rate : 74 b/s
Frame rate : 0.309 FPS
Count of elements : 1872
Stream size : 55.3 KiB (0%)
Language : English
Default : No
Forced : No

Text #7
ID : 9
Format : UTF-8
Codec ID : S_TEXT/UTF8
Codec ID/Info : UTF-8 Plain Text
Duration : 1 h 44 min
Bit rate : 196 b/s
Frame rate : 0.334 FPS
Count of elements : 2091
Stream size : 150 KiB (0%)
Title : SDH
Language : Hindi
Default : No
Forced : No

Text #8
ID : 10
Format : UTF-8
Codec ID : S_TEXT/UTF8
Codec ID/Info : UTF-8 Plain Text
Duration : 1 h 48 min
Bit rate : 61 b/s
Frame rate : 0.250 FPS
Count of elements : 1623
Stream size : 48.9 KiB (0%)
Title : Simplified
Language : Chinese
Default : No
Forced : No

Text #9
ID : 11
Format : UTF-8
Codec ID : S_TEXT/UTF8
Codec ID/Info : UTF-8 Plain Text
Duration : 1 h 48 min
Bit rate : 60 b/s
Frame rate : 0.252 FPS
Count of elements : 1631
Stream size : 48.0 KiB (0%)
Title : Traditional
Language : Chinese
Default : No
Forced : No

Menu
00:00:00.000 : en:Part 01
01:42:31.450 : en:Credits


部分资源为软字幕,移动端推荐播放器:MxPlayer,nPlayer,infuse ,其他播放器请自行尝试。

部分资源为软字幕,电脑端推荐播放器:PotPlayer,完美解码,KMPLAYER,其他播放器请自行尝试。

下载端推荐纯BT下载软件:qBittorrent,Bitcomet,uTorrent ,其他下载软件请自行尝试。不支持吸血迅雷。

上传的附件:
最新回复 (0)