2024 大陆 剧情 WEB-4K 走走停停[60帧率版本][高码版][国语配音/中文字幕].G.for.Gap.2024.2160p.HQ.WEB-DL.H265.60fps.DDP5.1-DreamHD 18.62GB

RAY20920M 2024-07-10 16:56 52034


完整标题:走走停停[60帧率版本][高码版][国语配音/中文字幕].G.for.Gap.2024.2160p.HQ.WEB-DL.H265.60fps.DDP5.1-DreamHD 18.62GB




◎译  名 走走停停 / Gold or Shit / G for Gap
◎年  代 2024
◎产  地 中国大陆
◎类  别 剧情 / 喜剧 / 家庭
◎语  言 汉语普通话 / 四川话
◎上映日期 2024-06-08(中国大陆) / 2024-04-19(北京国际电影节)
◎IMDb链接 https://www.imdb.com/title/tt27935510/
◎豆瓣评分 8.0/10 (86796人评价)
◎豆瓣链接 https://movie.douban.com/subject/35956190/
◎片  长 103分钟
◎导  演 龙飞 Fei Long (id:1375435)
◎编  剧 黄佳 Huang Jia (id:1375436)
◎演  员 胡歌 Ge Hu (id:1274477)
      高圆圆 Yuanyuan Gao (id:1018980)
      岳红 Hong Yue (id:1052863)
      周野芒 Yemang Zhou (id:1275865)
      金靖 Jing Jin (id:1376274)
      刘钧 Jun Liu (id:1314921)
      甘昀宸 Yunchen Gan (id:1424274)
      刘仪伟 Yiwei Liu (id:1315726)
      张鲁一 Luyi Zhang (id:1323723)
      袁弘 Hong Yuan (id:1275443)
      滕哲 Zhe Teng (id:1478144)
      陈砺志 Lizhi Chen (id:1400325)
      岳洋 Yang Yue (id:1442014)
      吴京 Jing Wu (id:1000525)
      傅若清 Ruoqing Fu (id:1417588)
      沈小葳 Xiaowei Shen (id:1397559)
      李捷 Jie Li (id:1403835)
      傅首尔 Shou'er Fu (id:1406503)
      荆建林 Jianlin Jing (id:1391818)
      杨念波 (id:1498540)
      谭鸽 (id:1487856)
      吴于宽 (id:1541047)
      张涵曦 (id:1487859)
      陈曦 Xi Chen (id:1383368)
      陈春 (id:1481598)
      刘倩 Qian Liu (id:1446923)
      雷泽华 (id:1459836)
      欹村 (id:1501056)
      高小阳 Xiaoyang Gao (id:1408650)
      陈军 Jun Chen (id:1405996)
      张钊 Zhang Zhao (id:1458263)
      王子超 (id:1460051)
      唐宁 Ning Tang (id:1480381)
      隋玉刚 Yugang Sui (id:1456218)
      周磊 (id:1471531)
      武磊 Lei Wu (id:1430624)
      史野 (id:1541049)

◎简  介
  脆皮青年吴迪(胡歌 饰),工作感情双双失意,沮丧返乡。吴迪“突袭”返乡的行为打破了一家人原本平静的生活,他不仅需要重新面对与家人的“亲密”相处,还要为自己的未来寻找更多的可能。在现实面前多番碰壁后,一次偶然的机会下他与高中同学冯柳柳(高圆圆 饰)相遇,随后生活也发生了意想不到的转变。

◎获奖情况 (共4项)
  第26届上海国际电影节 (2024)
  电影频道传媒大奖 最受传媒关注影片(提名)
   └──龙飞 (id:27588698)

  第14届北京国际电影节 (2024)
  天坛奖 最佳影片奖
   └──龙飞 (id:27588698)
  天坛奖 最佳女配角奖
   └──岳红 (id:27258630)
  天坛奖 最佳编剧奖
   └──黄佳 (id:27588699)

##### MediaInfo ######
General
Unique ID : 113525959330469134477695210580065102479 (0x55684DF0B23F90F47A7E2C9B06F3AA8F)
Complete name : G.for.Gap.2024.2160p.HQ.WEB-DL.H265.60fps.DDP5.1-DreamHD.mkv
Duration : 1 h 43 min
Overall bit rate : 25.6 Mb/s

Video
ID : 1
Format : HEVC
Format/Info : High Efficiency Video Coding
Format profile : Main 10@L5.1@Main
Codec ID : V_MPEGH/ISO/HEVC
Duration : 1 h 43 min
Bit rate : 24.4 Mb/s
Width : 3 840 pixels
Height : 1 608 pixels
Display aspect ratio : 2.40:1
Frame rate mode : Constant
Frame rate : 60.000 FPS
Color space : YUV
Chroma subsampling : 4:2:0
Bit depth : 10 bits
Bits/(Pixel*Frame) : 0.066
Stream size : 17.7 GiB (95%)
Default : Yes
Forced : No
Color range : Limited
Color primaries : BT.709
Transfer characteristics : BT.709
Matrix coefficients : BT.709

Audio #1
ID : 2
Format : E-AC-3
Format/Info : Enhanced AC-3
Commercial name : Dolby Digital Plus
Codec ID : A_EAC3
Duration : 1 h 43 min
Bit rate mode : Constant
Bit rate : 448 kb/s
Channel(s) : 6 channels
Channel layout : L R C LFE Ls Rs
Sampling rate : 48.0 kHz
Frame rate : 31.250 FPS (1536 SPF)
Compression mode : Lossy
Stream size : 333 MiB (2%)
Title : [DDP5.1] fm.hq
Language : Chinese
Service kind : Complete Main
Default : Yes
Forced : No

Audio #2
ID : 3
Format : E-AC-3
Format/Info : Enhanced AC-3
Commercial name : Dolby Digital Plus
Codec ID : A_EAC3
Duration : 1 h 43 min
Bit rate mode : Constant
Bit rate : 256 kb/s
Channel(s) : 6 channels
Channel layout : L R C LFE Ls Rs
Sampling rate : 48.0 kHz
Frame rate : 31.250 FPS (1536 SPF)
Compression mode : Lossy
Stream size : 190 MiB (1%)
Title : [DDP5.1] fm.iq
Language : Chinese
Service kind : Complete Main
Default : No
Forced : No

Audio #3
ID : 4
Format : E-AC-3
Format/Info : Enhanced AC-3
Commercial name : Dolby Digital Plus
Codec ID : A_EAC3
Duration : 1 h 43 min
Bit rate mode : Constant
Bit rate : 256 kb/s
Channel(s) : 2 channels
Channel layout : L R
Sampling rate : 48.0 kHz
Frame rate : 31.250 FPS (1536 SPF)
Bit depth : 32 bits
Compression mode : Lossy
Stream size : 190 MiB (1%)
Title : [DDP2.0]
Language : Chinese
Service kind : Complete Main
Default : No
Forced : No

Audio #4
ID : 5
Format : AAC LC
Format/Info : Advanced Audio Codec Low Complexity
Codec ID : A_AAC-2
Duration : 1 h 43 min
Bit rate : 256 kb/s
Channel(s) : 2 channels
Channel layout : L R
Sampling rate : 44.1 kHz
Frame rate : 43.066 FPS (1024 SPF)
Compression mode : Lossy
Stream size : 190 MiB (1%)
Title : [AAC2.0]
Language : Chinese
Default : No
Forced : No


部分资源为软字幕,移动端推荐播放器:MxPlayer,nPlayer,infuse ,其他播放器请自行尝试。

部分资源为软字幕,电脑端推荐播放器:PotPlayer,完美解码,KMPLAYER,其他播放器请自行尝试。

下载端推荐纯BT下载软件:qBittorrent,Bitcomet,uTorrent ,其他下载软件请自行尝试。不支持吸血迅雷。

上传的附件:
最新回复 (0)