2024 大陆 剧情 WEB-4K 走走停停[高码版][国语配音/中文字幕].G.for.Gap.2024.2160p.HQ.WEB-DL.H265.DDP5.1-DreamHD 15.24GB

MAY20919R 2024-07-10 16:57 20236


完整标题:走走停停[高码版][国语配音/中文字幕].G.for.Gap.2024.2160p.HQ.WEB-DL.H265.DDP5.1-DreamHD 15.24GB




◎标  题 走走停停
◎译  名 Gold or Shit / G for Gap
◎年  代 2024
◎产  地 中国大陆
◎类  别 剧情 / 喜剧 / 家庭
◎语  言 汉语普通话 / 四川话
◎上映日期 2024-06-08(中国大陆) / 2024-04-19(北京国际电影节)
◎IMDb评分 7.2/10 (89人评价)
◎IMDb链接 https://www.imdb.com/title/tt27935510/
◎豆瓣评分 8.0/10 (86796人评价)
◎豆瓣链接 https://movie.douban.com/subject/35956190/
◎片  长 103分钟 / 99分钟(北京国际电影节)
◎导  演 龙飞 Fei Long
◎编  剧 黄佳 Huang Jia
◎演  员 胡歌 Ge Hu
      高圆圆 Yuanyuan Gao
      岳红 Hong Yue
      周野芒 Yemang Zhou
      金靖 Jing Jin
      刘钧 Jun Liu
      甘昀宸 Yunchen Gan
      刘仪伟 Yiwei Liu
      张鲁一 Luyi Zhang
      袁弘 Hong Yuan
      王真儿 Zhen'er Wang
      赫子铭 Lanpeng He
      小爱 Hao Liu
      滕哲 Zhe Teng
      吕艳婷 Yanting Lü
      熊玉珠 Yuzhu Xiong

◎简  介
    脆皮青年吴迪(胡歌 饰),工作感情双双失意,沮丧返乡。吴迪“突袭”返乡的行为打破了一家人原本平静的生活,他不仅需要重新面对与家人的“亲密”相处,还要为自己的未来寻找更多的可能。在现实面前多番碰壁后,一次偶然的机会下他与高中同学冯柳柳(高圆圆 饰)相遇,随后生活也发生了意想不到的转变。

##### MediaInfo ######
General
Unique ID : 189660869298035623958359115210796203115 (0x8EAF5AD0A198D3CF8BEF7A5D2F8A7C6B)
Complete name : G.for.Gap.2024.2160p.HQ.WEB-DL.H265.DDP5.1-DreamHD.mkv
Duration : 1 h 43 min
Overall bit rate : 21.0 Mb/s

Video
ID : 1
Format : HEVC
Format/Info : High Efficiency Video Coding
Format profile : Main 10@L5.1@Main
Codec ID : V_MPEGH/ISO/HEVC
Duration : 1 h 43 min
Bit rate : 19.8 Mb/s
Width : 3 840 pixels
Height : 1 608 pixels
Display aspect ratio : 2.40:1
Frame rate mode : Constant
Frame rate : 24.000 FPS
Color space : YUV
Chroma subsampling : 4:2:0
Bit depth : 10 bits
Bits/(Pixel*Frame) : 0.133
Stream size : 14.4 GiB (94%)
Default : Yes
Forced : No
Color range : Limited
Color primaries : BT.709
Transfer characteristics : BT.709
Matrix coefficients : BT.709

Audio #1
ID : 2
Format : E-AC-3
Format/Info : Enhanced AC-3
Commercial name : Dolby Digital Plus
Codec ID : A_EAC3
Duration : 1 h 43 min
Bit rate mode : Constant
Bit rate : 448 kb/s
Channel(s) : 6 channels
Channel layout : L R C LFE Ls Rs
Sampling rate : 48.0 kHz
Frame rate : 31.250 FPS (1536 SPF)
Compression mode : Lossy
Stream size : 333 MiB (2%)
Title : [DDP5.1] fm.hq
Language : Chinese
Service kind : Complete Main
Default : Yes
Forced : No

Audio #2
ID : 3
Format : E-AC-3
Format/Info : Enhanced AC-3
Commercial name : Dolby Digital Plus
Codec ID : A_EAC3
Duration : 1 h 43 min
Bit rate mode : Constant
Bit rate : 256 kb/s
Channel(s) : 6 channels
Channel layout : L R C LFE Ls Rs
Sampling rate : 48.0 kHz
Frame rate : 31.250 FPS (1536 SPF)
Compression mode : Lossy
Stream size : 190 MiB (1%)
Title : [DDP5.1] fm.iq
Language : Chinese
Service kind : Complete Main
Default : No
Forced : No

Audio #3
ID : 4
Format : E-AC-3
Format/Info : Enhanced AC-3
Commercial name : Dolby Digital Plus
Codec ID : A_EAC3
Duration : 1 h 43 min
Bit rate mode : Constant
Bit rate : 256 kb/s
Channel(s) : 2 channels
Channel layout : L R
Sampling rate : 48.0 kHz
Frame rate : 31.250 FPS (1536 SPF)
Bit depth : 32 bits
Compression mode : Lossy
Stream size : 190 MiB (1%)
Title : [DDP2.0]
Language : Chinese
Service kind : Complete Main
Default : No
Forced : No

Audio #4
ID : 5
Format : AAC LC
Format/Info : Advanced Audio Codec Low Complexity
Codec ID : A_AAC-2
Duration : 1 h 43 min
Bit rate : 256 kb/s
Channel(s) : 2 channels
Channel layout : L R
Sampling rate : 44.1 kHz
Frame rate : 43.066 FPS (1024 SPF)
Compression mode : Lossy
Stream size : 190 MiB (1%)
Title : [AAC2.0]
Language : Chinese
Default : No
Forced : No


部分资源为软字幕,移动端推荐播放器:MxPlayer,nPlayer,infuse ,其他播放器请自行尝试。

部分资源为软字幕,电脑端推荐播放器:PotPlayer,完美解码,KMPLAYER,其他播放器请自行尝试。

下载端推荐纯BT下载软件:qBittorrent,Bitcomet,uTorrent ,其他下载软件请自行尝试。不支持吸血迅雷。

上传的附件:
最新回复 (2)
  • yuxgcc 12天前
    0 2
    感谢分享
  • 0 3
    6