更 早 美国 动作 BD-1080P 佐罗的面具[国英多音轨/中文字幕/特效字幕].The.Mask.Of.Zorro.1998.TWN.BluRay.1080p.HDR.AAC2.0.x264-DreamHD 4.12GB

RAY20920M 2024-07-10 19:00 9185


完整标题:佐罗的面具[国英多音轨/中文字幕/特效字幕].The.Mask.Of.Zorro.1998.TWN.BluRay.1080p.HDR.AAC2.0.x264-DreamHD 4.12GB




◎标  题 佐罗的面具
◎译  名 蒙面侠苏洛 / 黑侠梭罗 / 黑侠佐罗
◎片  名 The Mask of Zorro
◎年  代 1998
◎产  地 美国 / 墨西哥 / 德国
◎类  别 动作 / 爱情 / 西部 / 冒险
◎语  言 英语
◎上映日期 1998-07-17(美国)
◎IMDb评分 6.8/10 (189967人评价)
◎IMDb链接 https://www.imdb.com/title/tt0120746/
◎豆瓣评分 7.6/10 (27712人评价)
◎豆瓣链接 https://movie.douban.com/subject/1293225/
◎片  长 136分钟
◎导  演 马丁·坎贝尔 Martin Campbell
◎编  剧 特里·鲁西奥 Terry Rossio
      泰德·艾略特 Ted Elliott
      兰道尔·约翰逊 Randall Jahnson
◎演  员 乔塞·玛丽亚·塔维拉 José María de Tavira
      威廉姆马奎斯 William Marquez
      斯图亚特·维尔森 Stuart Wilson
      托尼·阿门多拉 Tony Amendola
      安东尼·霍普金斯 Anthony Hopkins
      佩德罗·阿尔塔米拉诺 Pedro Altamirano
      路易莎·维尔塔斯 Luisa Huertas
      Julieta Rosen Julieta Rosen
      安东尼奥·班德拉斯 Antonio Banderas
      L·Q·琼斯 L.Q. Jones
      托尼·吉纳罗 Tony Genaro
      大卫·比利亚尔潘多 David Villalpando
      马特·莱斯切尔 Matt Letscher
      莫里·柴金 Maury Chaykin
      保罗·盖恩斯 Paul Ganus
      康拉德·罗伯茨 Conrad Roberts
      艾贝尔·伍尔里奇 Abel Woolrich
      小佩德罗·阿门达里斯 Pedro Armendáriz Jr.
      凯瑟琳·泽塔-琼斯 Catherine Zeta-Jones
      巴内萨·宝切 Vanessa Bauche
      乔昆姆·德·阿尔梅达 Joaquim de Almeida
      JD Roberto JD Roberto
      Eduardo Iduñate Eduardo Iduñate

◎简  介
    蒙面英雄佐罗(安东尼•霍普金斯 Anthony Hopkins 饰)为了阻止西班牙总督蒙特罗滥杀无辜,突然从天而降,劫走了准备行刑的犯人,从而与蒙特罗结下深仇。随后,蒙特罗派部队跟踪了佐罗。在一片混战中,佐罗的妻子被杀死,还在襁褓中的女儿被虐走,佐罗也被投入了监牢。一晃眼二十年过去了,为了让自己的事业后继有人,佐罗带上面具逃出了监狱。蒙特罗这时仍然在作恶,他计划买下加利福尼亚的所有权。佐罗找到了年轻的盗贼马瑞塔(安东尼奥•班德拉斯 Antonio Banderas 饰),将毕生所学都传授了给他,希望马瑞塔能够阻止蒙特罗的阴谋。马瑞塔继承了佐罗的面具,然而当他找到蒙特罗时,发现拦在他面前的凶狠的西班牙公主(凯瑟琳•泽塔-琼斯 Catherine Zeta-Jones 饰)竟然就是当年老佐罗的女儿!

##### MediaInfo ######
General
Complete name : The Mask Of Zorro 1998 TWN BluRay 1080p iPad HDR AAC2.0 x264-DreamHD.mp4
Duration : 2 h 17 min
Overall bit rate : 4 286 kb/s

Video
ID : 1
Format : AVC
Format/Info : Advanced Video Codec
Format profile : Main@L6.2
HDR format : SMPTE ST 2086, HDR10 compatible
Format settings : 5 Ref Frames
Format settings, CABAC : No
Format settings, Reference frames : 5 frames
Codec ID : avc1
Codec ID/Info : Advanced Video Coding
Duration : 2 h 17 min
Bit rate : 4 000 kb/s
Maximum bit rate : 3 880 kb/s
Width : 1 920 pixels
Height : 1 080 pixels
Display aspect ratio : 16:9
Frame rate mode : Variable
Frame rate : 23.976 (24000/1001) FPS
Minimum frame rate : 23.974 FPS
Maximum frame rate : 23.981 FPS
Color space : YUV
Chroma subsampling : 4:2:0
Bit depth : 8 bits
Scan type : Progressive
Bits/(Pixel*Frame) : 0.080
Stream size : 3.73 GiB (91%)
Writing library : x264 core 164 r3107 a8b68ebf
Encoding settings : cabac=0 / ref=5 / deblock=0:0:0 / analyse=0x1:0x111 / me=hex / subme=8 / psy=1 / psy_rd=1.00:0.00 / mixed_ref=1 / me_range=16 / chroma_me=1 / trellis=2 / 8x8dct=0 / cqm=0 / deadzone=21,11 / fast_pskip=1 / chroma_qp_offset=-2 / threads=24 / lookahead_threads=4 / sliced_threads=0 / nr=0 / decimate=1 / interlaced=0 / bluray_compat=0 / constrained_intra=0 / bframes=3 / b_pyramid=2 / b_adapt=1 / b_bias=0 / direct=3 / weightb=0 / open_gop=0 / weightp=0 / keyint=240 / keyint_min=24 / scenecut=40 / intra_refresh=0 / rc_lookahead=50 / rc=abr / mbtree=1 / bitrate=4000 / ratetol=1.0 / qcomp=0.60 / qpmin=0 / qpmax=69 / qpstep=4 / vbv_maxrate=800000 / vbv_bufsize=800000 / nal_hrd=none / filler=0 / mastering-display=G(13250,34500)B(7500,3000)R(34000,16000)WP(15635,16450)L(40000000,50) / cll=9978,5364 / ip_ratio=1.40 / aq=1:1.00
Encoded date : UTC 2024-07-08 20:41:21
Tagged date : UTC 2024-07-08 20:41:21
Color range : Limited
Color primaries : BT.2020
Transfer characteristics : PQ
Matrix coefficients : BT.2020 non-constant
Mastering display color primaries : Display P3
Mastering display luminance : min: 0.0050 cd/m2, max: 4000 cd/m2
Maximum Content Light Level : 9978 cd/m2
Maximum Frame-Average Light Level : 5364 cd/m2
Menus : 4
mdhd_Duration : 8255247
Codec configuration box : avcC

Audio #1
ID : 2
Format : AAC LC
Format/Info : Advanced Audio Codec Low Complexity
Codec ID : mp4a-40-2
Duration : 2 h 17 min
Source duration : 2 h 17 min
Bit rate mode : Constant
Bit rate : 192 kb/s
Channel(s) : 2 channels
Channel layout : L R
Sampling rate : 48.0 kHz
Frame rate : 46.875 FPS (1024 SPF)
Compression mode : Lossy
Stream size : 192 MiB (5%)
Source stream size : 192 MiB (5%)
Title : Stereo
Language : English
Default : Yes
Alternate group : 1
Encoded date : UTC 2024-07-08 20:41:21
Tagged date : UTC 2024-07-08 20:41:21
Menus : 4

Audio #2
ID : 3
Format : AAC LC
Format/Info : Advanced Audio Codec Low Complexity
Codec ID : mp4a-40-2
Duration : 2 h 17 min
Source duration : 2 h 17 min
Bit rate mode : Constant
Bit rate : 197 kb/s
Channel(s) : 2 channels
Channel layout : L R
Sampling rate : 48.0 kHz
Frame rate : 46.875 FPS (1024 SPF)
Compression mode : Lossy
Stream size : 194 MiB (5%)
Source stream size : 194 MiB (5%)
Title : 重混国配次世代5.1
Language : Chinese
Default : No
Alternate group : 1
Encoded date : UTC 2024-07-08 20:41:21
Tagged date : UTC 2024-07-08 20:41:21
Menus : 4

Menu
ID : 4
Format : Timed Text
Codec ID : text
Duration : 2 h 17 min
Language : English
Encoded date : UTC 2024-07-08 20:41:21
Tagged date : UTC 2024-07-08 20:41:21
Bit rate mode : CBR
Menu For : 1,2,3
00:00:00.000 : 第 01 章
00:09:53.593 : 第 02 章
00:14:04.010 : 第 03 章
00:27:00.410 : 第 04 章
00:32:54.055 : 第 05 章
00:37:08.560 : 第 06 章
00:42:49.358 : 第 07 章
00:51:58.490 : 第 08 章
01:02:13.188 : 第 09 章
01:09:06.100 : 第 10 章
01:15:41.037 : 第 11 章
01:31:09.923 : 第 12 章
01:41:00.304 : 第 13 章
01:46:26.255 : 第 14 章
01:52:12.309 : 第 15 章
02:04:20.244 : 第 16 章
Bit rate mode : Constant


部分资源为软字幕,移动端推荐播放器:MxPlayer,nPlayer,infuse ,其他播放器请自行尝试。

部分资源为软字幕,电脑端推荐播放器:PotPlayer,完美解码,KMPLAYER,其他播放器请自行尝试。

下载端推荐纯BT下载软件:qBittorrent,Bitcomet,uTorrent ,其他下载软件请自行尝试。不支持吸血迅雷。

上传的附件:
最新回复 (0)