2022 法国 纪录 BD-1080P 人体结构[简繁英字幕].The.Fabric.of.the.Human.Body.2022.1080p.BluRay.x264.DTS-HD.MA.5.1-ParkHD 11.15GB

RAY20920M 2024-07-10 19:01 23825


完整标题:人体结构[简繁英字幕].The.Fabric.of.the.Human.Body.2022.1080p.BluRay.x264.DTS-HD.MA.5.1-ParkHD 11.15GB




◎标  题 人体结构
◎译  名 人体万花胴(港) / The Fabric of the Human Body
◎片  名 De Humani Corporis Fabrica
◎年  代 2022
◎产  地 法国 / 瑞士 / 美国
◎类  别 纪录片
◎语  言 法语
◎上映日期 2022-05-23(戛纳电影节)
◎IMDb评分 7.2/10 (585人评价)
◎IMDb链接 https://www.imdb.com/title/tt19783948/
◎豆瓣评分 7.3/10 (1223人评价)
◎豆瓣链接 https://movie.douban.com/subject/35168406/
◎片  长 115分钟
◎导  演 吕西安·卡斯坦因-泰勒 Lucien Castaing-Taylor
       维瑞娜·帕拉韦尔 Verena Paravel
◎编  剧 吕西安·卡斯坦因-泰勒 Lucien Castaing-Taylor
       维瑞娜·帕拉韦尔 Verena Paravel

◎简  介
    解剖学发明以来,人体奥秘开始为世人所知所见。然而,大家习惯的始终是那副最表面的臭皮囊,或留恋或厌倦,或拥抱或憎恶。假如能深入体腔,即时观察微肌细理,体液流动,可会了悟个中奥妙,那欲肉不为肉所欲的真义?得到医院前线及技术人员协助,韦莲娜柏丽芙与路西安卡斯当泰来再现了内窥和 微创手术的影像,辅以病人和医护的生活点滴,让作为关怀、痛苦、希望和被宰制场所的身体,成了光影景观的主角。血肉不再模糊的结果,可会对人文多一份凝视?

##### MediaInfo ######
General
Unique ID                                : 103876842090935804723091447699700288704 (0x4E25F3BAEF066834F5913972CD158CC0)
Complete name                            : The.Fabric.of.the.Human.Body.2022.1080p.BluRay.x264.DTS-HD.MA.5.1-ParkHD.mkv
Duration                                 : 2 h 2 min
Overall bit rate mode                    : Variable
Overall bit rate                         : 13.0 Mb/s

Video
ID                                       : 1
Format                                   : AVC
Format/Info                              : Advanced Video Codec
Format profile                           : High@L4.1
Format settings                          : CABAC / 4 Ref Frames
Format settings, CABAC                   : Yes
Format settings, Reference frames        : 4 frames
Codec ID                                 : V_MPEG4/ISO/AVC
Duration                                 : 2 h 2 min
Bit rate                                 : 11.1 Mb/s
Width                                    : 1 920 pixels
Height                                   : 1 080 pixels
Display aspect ratio                     : 16:9
Frame rate mode                          : Constant
Frame rate                               : 23.976 (24000/1001) FPS
Color space                              : YUV
Chroma subsampling                       : 4:2:0
Bit depth                                : 8 bits
Scan type                                : Progressive
Bits/(Pixel*Frame)                       : 0.222
Stream size                              : 9.48 GiB (85%)
Writing library                          : x264 core 164 r3085+55M 938b6d0 t_mod_New [(8 & 10)-bit@all X86_64]
Encoding settings                        : cabac=1 / ref=4 / deblock=1:-3:-3 / analyse=0x3:0x113 / me=umh / subme=11 / psy=1 / fade_compensate=0.00 / psy_rd=1.00:0.05 / mixed_ref=1 / me_range=128 / chroma_me=1 / trellis=2 / 8x8dct=1 / cqm=0 / deadzone=21,11 / fast_pskip=0 / chroma_qp_offset=-4 / threads=24 / lookahead_threads=4 / sliced_threads=0 / nr=0 / decimate=0 / interlaced=0 / bluray_compat=0 / constrained_intra=0 / fgo=0 / bframes=8 / b_pyramid=2 / b_adapt=2 / b_bias=0 / direct=3 / weightb=1 / open_gop=0 / weightp=2 / keyint=250 / keyint_min=23 / scenecut=40 / intra_refresh=0 / rc_lookahead=60 / rc=crf / mbtree=0 / crf=23.8300 / qcomp=0.60 / qpmin=0:0:0 / qpmax=69:69:69 / qpstep=4 / vbv_maxrate=50000 / vbv_bufsize=40000 / crf_max=0.0 / nal_hrd=none / filler=0 / ip_ratio=1.40 / pb_ratio=1.30 / aq=3:0.90 / aq-sensitivity=10.00 / aq-factor=1.00:1.00:1.00 / aq2=0 / aq3=0
Default                                  : Yes
Forced                                   : No

Audio
ID                                       : 2
ID in the original source medium         : 4352 (0x1100)
Format                                   : DTS XLL
Format/Info                              : Digital Theater Systems
Commercial name                          : DTS-HD Master Audio
Codec ID                                 : A_DTS
Duration                                 : 2 h 2 min
Bit rate mode                            : Variable
Bit rate                                 : 1 920 kb/s
Channel(s)                               : 6 channels
Channel layout                           : C L R Ls Rs LFE
Sampling rate                            : 48.0 kHz
Frame rate                               : 93.750 FPS (512 SPF)
Bit depth                                : 16 bits
Compression mode                         : Lossless
Stream size                              : 1.65 GiB (15%)
Title                                    : English
Language                                 : English
Default                                  : Yes
Forced                                   : No
Original source medium                   : Blu-ray

Text #1
ID                                       : 3
ID in the original source medium         : 4609 (0x1201)
Format                                   : PGS
Muxing mode                              : zlib
Codec ID                                 : S_HDMV/PGS
Codec ID/Info                            : Picture based subtitle format used on BDs/HD-DVDs
Duration                                 : 1 h 49 min
Bit rate                                 : 17.5 kb/s
Frame rate                               : 0.307 FPS
Count of elements                        : 2020
Stream size                              : 13.7 MiB (0%)
Title                                    : chs
Language                                 : Chinese
Default                                  : Yes
Forced                                   : No
Original source medium                   : Blu-ray

Text #2
ID                                       : 4
ID in the original source medium         : 4610 (0x1202)
Format                                   : PGS
Muxing mode                              : zlib
Codec ID                                 : S_HDMV/PGS
Codec ID/Info                            : Picture based subtitle format used on BDs/HD-DVDs
Duration                                 : 1 h 49 min
Bit rate                                 : 17.7 kb/s
Frame rate                               : 0.307 FPS
Count of elements                        : 2020
Stream size                              : 13.8 MiB (0%)
Title                                    : cht
Language                                 : Chinese
Default                                  : No
Forced                                   : No
Original source medium                   : Blu-ray

Text #3
ID                                       : 5
ID in the original source medium         : 4608 (0x1200)
Format                                   : PGS
Muxing mode                              : zlib
Codec ID                                 : S_HDMV/PGS
Codec ID/Info                            : Picture based subtitle format used on BDs/HD-DVDs
Duration                                 : 1 h 46 min
Bit rate                                 : 19.6 kb/s
Frame rate                               : 0.324 FPS
Count of elements                        : 2082
Stream size                              : 15.0 MiB (0%)
Title                                    : eng
Language                                 : English
Default                                  : No
Forced                                   : No
Original source medium                   : Blu-ray

Menu
00:00:00.000                             : en:Chapter 01
00:11:17.259                             : en:Chapter 02
00:25:38.411                             : en:Chapter 03
00:36:55.129                             : en:Chapter 04
00:47:29.930                             : en:Chapter 05
00:56:38.520                             : en:Chapter 06
01:08:50.376                             : en:Chapter 07
01:19:06.366                             : en:Chapter 08
01:25:37.423                             : en:Chapter 09
01:36:21.192                             : en:Chapter 10
01:48:08.273                             : en:Chapter 11
01:58:56.921                             : en:Chapter 12


部分资源为软字幕,移动端推荐播放器:MxPlayer,nPlayer,infuse ,其他播放器请自行尝试。

部分资源为软字幕,电脑端推荐播放器:PotPlayer,完美解码,KMPLAYER,其他播放器请自行尝试。

下载端推荐纯BT下载软件:qBittorrent,Bitcomet,uTorrent ,其他下载软件请自行尝试。不支持吸血迅雷。

最后于 12天前 被Eddie wang编辑 ,原因:
上传的附件:
最新回复 (2)
  • max1021 11天前
    0 2
    谢谢楼主分享
  • zed2008 11天前
    0 3
    感谢楼主