2024 大陆 剧情 WEB-4K 末路狂花钱[杜比视界版本][高码版][国语配音/中文字幕].The.Last.Frenzy.2024.2160p.HQ.WEB-DL.H265.DV.DTS5.1-DreamHD 16.29GB

Katt2092T 2024-07-10 19:01 20620


完整标题:末路狂花钱[杜比视界版本][高码版][国语配音/中文字幕].The.Last.Frenzy.2024.2160p.HQ.WEB-DL.H265.DV.DTS5.1-DreamHD 16.29GB




◎标  题 末路狂花钱
◎译  名 The Last Frenzy
◎年  代 2024
◎产  地 中国大陆
◎类  别 剧情 / 喜剧
◎语  言 汉语普通话
◎上映日期 2024-05-01(中国大陆)
◎IMDb链接 https://www.imdb.com/title/tt30768761/
◎豆瓣评分 5.7/10 (42858人评价)
◎豆瓣链接 https://movie.douban.com/subject/36430322/
◎片  长 107分钟
◎导  演 乌日娜 Nana
◎编  剧 乌日娜 Nana
◎演  员 贾冰 Bing Jia
      谭卓 Zhuo Tan
      小沈阳 Xiao Shen-Yang
      于洋 Yang Yu
      董宝石 Baoshi Dong
      李嘉琦 Jackie Li
      张百乔 Baiqiao Zhang
      李宗恒 Zongheng Li
      刘嘉裕 Danko
      李琦 Qi Li
      周大勇 Dayong Zhou
      马旭东 Xudong Ma
      魏来 Lai Wei
      马驰 Chi Ma
      李海银 Haiyin Li
      郭赫轩 Hexuan Guo

◎简  介
    注意看,眼前这个男人叫贾有为(贾冰 饰),“省钱门”当之无愧代言人,抠门赛道遥遥领先的天之骄子!他抠搜半生不敢玩命花钱,没成想正值壮年罹患绝症是没命花钱!眼看生命只剩十天,百万存款秒变过眼云烟,贾有为浮想联翩,决定带着拜把子老铁沙白虎(小沈阳 饰)、许大力(于洋 饰)和董建峰(董宝石 饰)尽情挥霍,不辜负人间!万万没想到体验新人生处处是惊喜,不光友情续费了,快乐到位了,就连贾有为的昔日女神王晓倩(谭卓 饰)也意外再会了……

##### MediaInfo ######
General
Unique ID : 68329032064581414351909968514939936622 (0x3367B16165BFEC6F7F8B85C5F7A4DF6E)
Complete name : The.Last.Frenzy.2024.2160p.HQ.WEB-DL.H265.DV.DTS5.1-DreamHD.mkv
Duration : 1 h 46 min
Overall bit rate : 21.9 Mb/s

Video
ID : 1
Format : HEVC
Format/Info : High Efficiency Video Coding
Format profile : Main 10@L5.1@Main
HDR format : Dolby Vision, Version 1.0, dvhe.05.06, BL+RPU
Codec ID : V_MPEGH/ISO/HEVC
Duration : 1 h 46 min
Bit rate : 19.9 Mb/s
Width : 3 840 pixels
Height : 1 616 pixels
Display aspect ratio : 2.40:1
Frame rate mode : Constant
Frame rate : 24.000 FPS
Color space : YUV
Chroma subsampling : 4:2:0
Bit depth : 10 bits
Bits/(Pixel*Frame) : 0.134
Stream size : 14.8 GiB (91%)
Language : Chinese
Default : Yes
Forced : No
Color range : Full

Audio #1
ID : 2
Format : DTS
Format/Info : Digital Theater Systems
Codec ID : A_DTS
Duration : 1 h 46 min
Bit rate mode : Constant
Bit rate : 768 kb/s
Channel(s) : 6 channels
Channel layout : C L R Ls Rs LFE
Sampling rate : 48.0 kHz
Frame rate : 93.750 FPS (512 SPF)
Bit depth : 24 bits
Compression mode : Lossy
Stream size : 585 MiB (4%)
Title : [DTS5.1]
Language : Chinese
Default : Yes
Forced : No

Audio #2
ID : 3
Format : E-AC-3
Format/Info : Enhanced AC-3
Commercial name : Dolby Digital Plus
Codec ID : A_EAC3
Duration : 1 h 46 min
Bit rate mode : Constant
Bit rate : 448 kb/s
Channel(s) : 6 channels
Channel layout : L R C LFE Ls Rs
Sampling rate : 48.0 kHz
Frame rate : 31.250 FPS (1536 SPF)
Compression mode : Lossy
Stream size : 341 MiB (2%)
Title : [DDP5.1] fm.hq
Language : Chinese
Service kind : Complete Main
Default : No
Forced : No

Audio #3
ID : 4
Format : E-AC-3
Format/Info : Enhanced AC-3
Commercial name : Dolby Digital Plus
Codec ID : A_EAC3
Duration : 1 h 46 min
Bit rate mode : Constant
Bit rate : 256 kb/s
Channel(s) : 6 channels
Channel layout : L R C LFE Ls Rs
Sampling rate : 48.0 kHz
Frame rate : 31.250 FPS (1536 SPF)
Compression mode : Lossy
Stream size : 195 MiB (1%)
Title : [DDP5.1] fm.iq
Language : Chinese
Service kind : Complete Main
Default : No
Forced : No

Audio #4
ID : 5
Format : AAC LC
Format/Info : Advanced Audio Codec Low Complexity
Codec ID : A_AAC-2
Duration : 1 h 46 min
Bit rate : 256 kb/s
Channel(s) : 6 channels
Channel layout : C L R Ls Rs LFE
Sampling rate : 44.1 kHz
Frame rate : 43.066 FPS (1024 SPF)
Compression mode : Lossy
Stream size : 195 MiB (1%)
Title : [AAC5.1]
Language : Chinese
Default : No
Forced : No

Audio #5
ID : 6
Format : AAC LC
Format/Info : Advanced Audio Codec Low Complexity
Codec ID : A_AAC-2
Duration : 1 h 46 min
Bit rate : 256 kb/s
Channel(s) : 2 channels
Channel layout : L R
Sampling rate : 44.1 kHz
Frame rate : 43.066 FPS (1024 SPF)
Compression mode : Lossy
Stream size : 195 MiB (1%)
Title : [AAC2.0]
Language : Chinese
Default : No
Forced : No


部分资源为软字幕,移动端推荐播放器:MxPlayer,nPlayer,infuse ,其他播放器请自行尝试。

部分资源为软字幕,电脑端推荐播放器:PotPlayer,完美解码,KMPLAYER,其他播放器请自行尝试。

下载端推荐纯BT下载软件:qBittorrent,Bitcomet,uTorrent ,其他下载软件请自行尝试。不支持吸血迅雷。

上传的附件:
最新回复 (1)
  • RHASTA0626 12天前
    0 2

    感谢分享